<?xml version="1.0" standalone="no"?>
<!DOCTYPE svg PUBLIC "-//W3C//DTD SVG 1.1//EN" "http://www.w3.org/Graphics/SVG/1.1/DTD/svg11.dtd" >
<svg xmlns="http://www.w3.org/2000/svg">
<metadata></metadata>
<defs>
<font id="overpassbold" horiz-adv-x="1290" >
<font-face units-per-em="2048" ascent="1536" descent="-512" />
<missing-glyph horiz-adv-x="471" />
<glyph unicode="&#xfb01;" horiz-adv-x="1157" d="M45 813v234h145v159q0 78 22.5 127t59 76.5t82.5 38t94 10.5q63 0 120 -11.5t114 -39.5v-217q-31 12 -54 18.5t-41 10.5t-31 5t-24 1q-34 0 -55 -17.5t-21 -54.5v-106h226v-234h-226v-813h-266v813h-145zM719 1325q0 32 12.5 60t33.5 49t49.5 33t60.5 12t60.5 -12 t49.5 -33t33 -49t12 -60t-12 -60.5t-33 -49.5t-49.5 -33.5t-60.5 -12.5t-60.5 12.5t-49.5 33.5t-33.5 49.5t-12.5 60.5zM742 0v1047h266v-1047h-266z" />
<glyph unicode="&#xfb02;" horiz-adv-x="1145" d="M45 813v234h145v159q0 78 22.5 127t59 76.5t82.5 38t94 10.5q63 0 120 -11.5t114 -39.5v-217q-31 12 -54 18.5t-41 10.5t-31 5t-24 1q-34 0 -55 -17.5t-21 -54.5v-106h226v-234h-226v-813h-266v813h-145zM735 0v1354l266 125v-1479h-266z" />
<glyph horiz-adv-x="0" />
<glyph horiz-adv-x="682" />
<glyph unicode=" "  horiz-adv-x="471" />
<glyph unicode="&#x09;" horiz-adv-x="471" />
<glyph unicode="&#xa0;" horiz-adv-x="471" />
<glyph unicode="!" horiz-adv-x="614" d="M129 150q0 36 13.5 68t37 56t55.5 38t70 14t71 -14t57 -38t38 -56t14 -68t-14 -68t-38 -56t-57 -37.5t-71 -13.5t-70 13.5t-55.5 37.5t-37 56t-13.5 68zM172 995v463h266v-463l-57 -600h-152z" />
<glyph unicode="&#x22;" horiz-adv-x="918" d="M92 1434h320l-50 -596h-221zM506 1434h319l-49 -596h-221z" />
<glyph unicode="#" horiz-adv-x="1434" d="M86 360l33 230h219l43 289h-217l33 229h221l47 326h233l-49 -326h248l51 326h232l-50 -326h218l-33 -229h-219l-43 -289h217l-35 -230h-217l-55 -360h-234l55 360h-247l-56 -360h-233l55 360h-217zM571 590h248l43 289h-248z" />
<glyph unicode="$" horiz-adv-x="1231" d="M102 365l252 92q21 -48 49.5 -88.5t64 -69.5t76.5 -45t87 -16q88 0 141 45t53 129q0 54 -28.5 90.5t-75.5 64.5t-106.5 50.5t-122 48t-122 57.5t-106.5 79t-75.5 112t-28.5 157q0 66 21 126t61.5 109.5t100 85t136.5 52.5v164h269v-166q62 -16 111.5 -46t87.5 -70.5 t65 -90.5t43 -107l-248 -81q-12 30 -31.5 57.5t-45.5 47.5t-59.5 32t-74.5 12q-71 0 -112.5 -33t-41.5 -92q0 -44 28.5 -74t75.5 -54t107 -45.5t122 -48t122 -61.5t107 -85.5t75.5 -121t28.5 -167.5q0 -90 -28 -162t-76.5 -125.5t-114 -88.5t-141.5 -50v-176h-269v182 q-139 34 -234.5 130.5t-142.5 240.5z" />
<glyph unicode="%" horiz-adv-x="1729" d="M92 1083q0 41 8 84.5t25.5 85.5t44.5 79t66 65t89.5 44.5t114.5 16.5q95 0 161.5 -33.5t108 -87.5t60 -121t18.5 -133q0 -61 -18 -127t-58.5 -121t-107.5 -90.5t-164 -35.5q-95 0 -161.5 33.5t-108 87.5t-60 120.5t-18.5 132.5zM244 -25l977 1483h264l-977 -1483h-264z M322 1083q0 -68 29 -110.5t89 -42.5q31 0 53.5 12.5t37 33.5t21.5 48.5t7 58.5q0 69 -29.5 111.5t-89.5 42.5q-31 0 -53 -12.5t-36.5 -33.5t-21.5 -49t-7 -59zM940 350q0 41 8 84.5t25.5 85.5t44.5 79t66 65t89.5 44.5t114.5 16.5q95 0 161.5 -34t108 -87.5t60 -120.5 t18.5 -133q0 -62 -18 -128t-58.5 -121t-107.5 -90.5t-164 -35.5q-96 0 -162.5 34t-107.5 87.5t-59.5 120.5t-18.5 133zM1169 350q0 -68 28.5 -110.5t90.5 -42.5q31 0 53.5 12.5t37 33.5t21.5 48.5t7 58.5q0 68 -29.5 111t-89.5 43q-31 0 -53.5 -12.5t-37 -33.5t-21.5 -49 t-7 -59z" />
<glyph unicode="&#x26;" horiz-adv-x="1473" d="M123 389q0 78 24.5 141.5t66.5 114.5t97 90.5t117 71.5q-38 45 -63.5 84t-41.5 76.5t-23 75t-7 79.5q0 82 28 145t77.5 105.5t115.5 64t143 21.5q78 0 143.5 -23.5t113 -66.5t74 -104.5t26.5 -137.5q0 -65 -18 -118t-49 -96.5t-72.5 -79.5t-88.5 -66l158 -188 q8 32 12.5 68t4.5 71h262q-1 -49 -7.5 -99t-18 -97t-28.5 -90t-39 -77l295 -354h-346l-110 137q-79 -77 -179.5 -119.5t-230.5 -42.5q-99 0 -179.5 29.5t-137.5 83.5t-88 130.5t-31 170.5zM399 397q0 -36 13 -66.5t37 -52.5t59 -34.5t80 -12.5q66 0 123 24.5t106 68.5 l-246 303q-85 -47 -128.5 -102.5t-43.5 -127.5zM543 1139q0 -51 27 -100t75 -103q53 32 86 77.5t33 108.5q0 34 -9 58.5t-25 40.5t-36.5 24t-42.5 8q-46 0 -77 -31t-31 -83z" />
<glyph unicode="'" horiz-adv-x="504" d="M92 1434h320l-50 -596h-221z" />
<glyph unicode="(" horiz-adv-x="762" d="M143 580q0 149 23.5 281.5t61.5 244t87.5 201t100.5 151.5h264q-33 -41 -79 -122t-88 -195t-71.5 -256t-29.5 -305q0 -161 27.5 -298.5t66.5 -246t81 -185.5t70 -116h-264q-47 61 -92 145.5t-80 190.5t-56.5 233.5t-21.5 276.5z" />
<glyph unicode=")" horiz-adv-x="762" d="M82 1458h264q51 -62 100 -151.5t87.5 -201t61.5 -244t23 -281.5t-21.5 -276.5t-56.5 -233.5t-79.5 -190.5t-91.5 -145.5h-265q19 26 44.5 69t53 101.5t54 131t47.5 158t34 182.5t13 204q0 163 -29.5 305t-71.5 256t-88 195t-79 122z" />
<glyph unicode="*" horiz-adv-x="1126" d="M102 1036l76 238l225 -74l68 -51l-33 82v244h250v-244l-33 -82l68 51l225 74l76 -238l-221 -73l-96 -2l79 -39l152 -205l-199 -144l-151 203l-25 96l-24 -96l-152 -203l-199 144l152 205l80 39l-96 2z" />
<glyph unicode="+" d="M164 573v258h348v353h266v-353h348v-258h-348v-352h-266v352h-348z" />
<glyph unicode="," horiz-adv-x="506" d="M72 -205q14 12 33 34t38.5 48t36 54t25.5 53q-50 15 -83.5 55.5t-33.5 103.5q0 39 14 70t38 53.5t55 34.5t65 12q36 0 67.5 -13t55.5 -37.5t37.5 -61t13.5 -84.5q0 -60 -20.5 -119t-55 -112.5t-79.5 -98.5t-95 -76z" />
<glyph unicode="-" horiz-adv-x="844" d="M154 477v256h536v-256h-536z" />
<glyph unicode="." horiz-adv-x="494" d="M74 143q0 36 13 67t36 54t54.5 36t68.5 13t68.5 -13t55 -36t37 -54t13.5 -67q0 -35 -13.5 -66t-37 -53.5t-55 -35.5t-68.5 -13t-68.5 13t-54.5 35.5t-36 53.5t-13 66z" />
<glyph unicode="/" horiz-adv-x="1069" d="M-31 -266l805 1724h275l-805 -1724h-275z" />
<glyph unicode="0" horiz-adv-x="1364" d="M154 717q0 88 10.5 177.5t35 172t64 154t98.5 124t138 83t182 30.5t182 -30t138 -83t98.5 -124t64 -153.5t35 -172t10.5 -178.5q0 -88 -10.5 -177t-35 -171.5t-64 -154.5t-98.5 -125t-138 -83.5t-182 -30.5t-182 30.5t-138 83.5t-98.5 125t-64 154.5t-35 171.5t-10.5 177 zM430 717q0 -90 12 -176t41 -153.5t77.5 -108.5t121.5 -41t121.5 41t77.5 108.5t41 153.5t12 176t-12 176t-41 153.5t-77.5 108.5t-121.5 41t-121.5 -41t-77.5 -108.5t-41 -153.5t-12 -176z" />
<glyph unicode="1" horiz-adv-x="854" d="M72 1061v219q51 0 94.5 7.5t79 25.5t61 47.5t39.5 73.5h221v-1434h-276v1061h-219z" />
<glyph unicode="2" horiz-adv-x="1266" d="M133 0q0 159 39.5 282.5t107.5 218.5t159 166.5t194 127.5q39 21 76 44t65.5 51t46 62t17.5 76q0 79 -51 123.5t-136 44.5q-90 0 -151 -43t-97 -119l-247 113q31 72 81 129.5t113 98t138 62t157 21.5q111 0 198 -33t147 -90t92 -134.5t32 -166.5q0 -98 -27 -169t-75 -125 t-115 -97.5t-147 -87.5q-112 -62 -186 -131.5t-103 -157.5h665v-266h-993z" />
<glyph unicode="3" horiz-adv-x="1241" d="M100 311l250 101q24 -48 54 -81.5t64 -54t71 -29.5t75 -9q48 0 87.5 12.5t68.5 36t45 57.5t16 78q0 40 -12.5 74.5t-39.5 60t-69 40.5t-100 15h-139v265h139q78 0 125 42.5t47 116.5q0 34 -11.5 63t-33.5 50.5t-55 34t-76 12.5q-38 0 -69 -10t-57 -27.5t-46.5 -41.5 t-36.5 -52l-250 96q31 67 76 122t103.5 94t129.5 60t154 21q100 0 182.5 -30.5t142 -83.5t92 -126t32.5 -157q0 -103 -47 -182t-127 -125q46 -18 86.5 -49.5t71 -74t48 -95t17.5 -113.5q0 -107 -36.5 -190t-102.5 -140t-158.5 -87t-204.5 -30q-92 0 -170.5 23.5t-142.5 67.5 t-112.5 106t-80.5 139z" />
<glyph unicode="4" horiz-adv-x="1348" d="M31 287v176l733 971h287v-891h174v-256h-174v-287h-271v287h-749zM391 543h389v526z" />
<glyph unicode="5" horiz-adv-x="1249" d="M123 113l149 217q26 -17 56 -33.5t65.5 -29.5t78.5 -21t95 -8q61 0 111.5 16.5t87 48t56.5 76.5t20 102q0 99 -53.5 155t-149.5 56q-74 0 -125.5 -27t-93.5 -73l-256 121l37 721h827v-267h-571l-17 -260q45 20 96.5 33.5t114.5 13.5q117 0 204.5 -38t146 -102.5 t87.5 -150.5t29 -182q0 -117 -41.5 -211t-115 -159.5t-174.5 -100.5t-220 -35q-81 0 -149 12.5t-123.5 32t-98 44t-73.5 49.5z" />
<glyph unicode="6" horiz-adv-x="1270" d="M133 528q0 174 48 328t150 276t261 206.5t381 119.5v-262q-79 -12 -157 -38t-146 -69.5t-122 -105.5t-85 -145q38 29 98 50t137 21q102 0 188.5 -34t148.5 -96t97 -148t35 -191q0 -104 -37.5 -189.5t-105.5 -146.5t-162 -95t-207 -34q-129 0 -226.5 42.5t-163.5 116.5 t-99 175.5t-33 218.5zM418 440q0 -48 18 -85.5t49.5 -63.5t75 -39.5t94.5 -13.5t94 13.5t74.5 39.5t49.5 63.5t18 85.5q0 49 -18 87.5t-49.5 65t-74.5 40.5t-94 14t-94.5 -14t-75 -41t-49.5 -65.5t-18 -86.5z" />
<glyph unicode="7" horiz-adv-x="1120" d="M51 1167v267h987v-244q-75 -86 -134.5 -186.5t-105 -207t-78.5 -215.5t-53.5 -212.5t-31 -197.5t-10.5 -171h-277q1 175 24.5 331t69.5 299t115 276t162 261h-668z" />
<glyph unicode="8" horiz-adv-x="1300" d="M133 432q0 126 65 214t173 138q-35 18 -67.5 45.5t-57.5 64.5t-40.5 83.5t-15.5 101.5q0 84 31.5 153.5t90.5 120t144 78t193 27.5q107 0 192.5 -27.5t145 -78t91.5 -120t32 -153.5q0 -54 -15 -99.5t-40.5 -82.5t-58.5 -64.5t-68 -46.5q54 -25 98 -60t75.5 -79.5 t48.5 -98.5t17 -116q0 -102 -36 -186t-103.5 -144.5t-163.5 -93.5t-215 -33t-214.5 33t-162.5 93.5t-103 144.5t-36 186zM410 436q0 -45 17 -83.5t48 -67t75.5 -44.5t98.5 -16q53 0 97.5 16t76.5 44.5t50 67t18 83.5q0 47 -18 86t-50 67.5t-76.5 44t-97.5 15.5 q-54 0 -98.5 -15.5t-75.5 -44t-48 -67.5t-17 -86zM465 1061q0 -34 12.5 -63t36.5 -50t58 -33t77 -12q42 0 76.5 12t59 33t38 50t13.5 63q0 32 -13.5 59.5t-38 48t-59 32t-76.5 11.5q-43 0 -77 -11.5t-58 -32t-36.5 -48t-12.5 -59.5z" />
<glyph unicode="9" horiz-adv-x="1270" d="M102 997q0 105 38 190.5t106.5 145.5t164 92.5t210.5 32.5q134 0 231.5 -41.5t160.5 -115.5t93.5 -175.5t30.5 -222.5q0 -207 -48 -375.5t-147 -289t-250 -189t-356 -74.5v263q77 2 153 20t142 60t118 113t80 179q-38 -32 -100 -55t-143 -23q-105 0 -193.5 31.5 t-153 91.5t-101 146t-36.5 196zM379 999q0 -99 64 -151.5t175 -52.5q113 0 177.5 52.5t64.5 151.5q0 45 -17 82.5t-48.5 63.5t-75.5 40.5t-98 14.5q-56 0 -101 -14.5t-76.5 -40.5t-48 -63.5t-16.5 -82.5z" />
<glyph unicode=":" horiz-adv-x="494" d="M74 143q0 36 13 67t36 54t54.5 36t68.5 13t68.5 -13t55 -36t37 -54t13.5 -67q0 -35 -13.5 -66t-37 -53.5t-55 -35.5t-68.5 -13t-68.5 13t-54.5 35.5t-36 53.5t-13 66zM74 825q0 36 13 67t36 54t54.5 36t68.5 13t68.5 -13t55 -36t37 -54t13.5 -67q0 -35 -13.5 -66 t-37 -53.5t-55 -35.5t-68.5 -13t-68.5 13t-54.5 35.5t-36 53.5t-13 66z" />
<glyph unicode=";" horiz-adv-x="494" d="M66 -205q13 12 32.5 32.5t39 45.5t36 53.5t25.5 57.5q-50 15 -83.5 55.5t-33.5 103.5q0 39 14 70t38 53.5t55 34.5t65 12q36 0 67.5 -13t55.5 -37.5t37.5 -61t13.5 -84.5q0 -65 -20.5 -125t-55 -112t-79.5 -95t-95 -74zM82 825q0 36 13 67t36 54t54.5 36t68.5 13 t68.5 -13t55 -36t37 -54t13.5 -67q0 -35 -13.5 -66t-37 -53.5t-55 -35.5t-68.5 -13t-68.5 13t-54.5 35.5t-36 53.5t-13 66z" />
<glyph unicode="&#x3c;" d="M164 594v217l962 393v-278l-565 -224l565 -225v-276z" />
<glyph unicode="=" d="M164 346v258h962v-258h-962zM164 801v258h962v-258h-962z" />
<glyph unicode="&#x3e;" d="M164 201v278l565 223l-565 226v276l962 -393v-217z" />
<glyph unicode="?" horiz-adv-x="1034" d="M41 961q0 120 35 212.5t98.5 155.5t151 96t192.5 33q108 0 191.5 -32t139.5 -88t85 -132t29 -164q0 -63 -14 -111t-37.5 -85.5t-53 -67.5t-60.5 -56.5t-60.5 -52.5t-53 -56.5t-37.5 -67.5t-14 -86v-72h-266v74q0 95 24.5 160t61 112t79 81.5t79 67.5t61 70t24.5 90 q0 70 -45.5 115t-132.5 45q-102 0 -156.5 -63t-54.5 -178h-266zM330 143q0 36 13 67t36 54t54.5 36t68.5 13t68.5 -13t55 -36t37 -54t13.5 -67q0 -35 -13.5 -66t-37 -53.5t-55 -35.5t-68.5 -13t-68.5 13t-54.5 35.5t-36 53.5t-13 66z" />
<glyph unicode="@" horiz-adv-x="1714" d="M123 692q0 112 27 212.5t77 185.5t119.5 153t155 116t184 73.5t205.5 25.5q160 0 289.5 -48.5t221 -132t140.5 -195t49 -238.5q0 -113 -33 -208.5t-91.5 -164.5t-138 -108t-173.5 -39q-23 0 -48.5 6t-49 18.5t-41.5 32.5t-27 49q-34 -60 -87 -83t-116 -23 q-65 0 -119 24.5t-93 70t-60.5 110t-21.5 145.5q0 78 27 154t76.5 136t119.5 97t157 37q62 0 104.5 -24.5t63.5 -59.5l11 57h202l-67 -364q-13 -62 -20 -105.5t-7 -58.5q0 -16 8 -25.5t27 -9.5q37 0 72 22t63 64.5t45 104.5t17 141q0 86 -29.5 162t-90 132.5t-153 89.5 t-217.5 33q-126 0 -230 -42t-178.5 -117.5t-115.5 -179.5t-41 -228q0 -125 38.5 -221t109.5 -161t171.5 -98.5t225.5 -33.5q66 0 135.5 10t144.5 29l-59 -223q-59 -8 -116 -12.5t-114 -4.5q-167 0 -304.5 47.5t-236.5 139t-153.5 225t-54.5 305.5zM700 670q0 -65 30 -105.5 t81 -40.5q42 0 74.5 21t55 54t34.5 74t12 81q0 65 -29 104t-81 39q-39 0 -71.5 -18t-56 -49t-36.5 -72.5t-13 -87.5z" />
<glyph unicode="A" horiz-adv-x="1520" d="M76 0l549 1434h270l549 -1434h-297l-111 297h-553l-110 -297h-297zM573 549h373l-141 373q-11 26 -23.5 62t-21.5 67q-8 -31 -21 -67t-24 -62z" />
<glyph unicode="B" horiz-adv-x="1460" d="M184 0v1434h629q131 0 220 -33t143.5 -87t78 -123t23.5 -142q0 -46 -9.5 -89t-30.5 -80.5t-54 -69t-80 -54.5q61 -23 103.5 -59.5t69 -80.5t38.5 -93t12 -97q0 -76 -25.5 -152t-83 -137t-150 -99t-226.5 -38h-658zM461 258h395q56 0 93 15.5t58.5 39.5t30.5 54t9 59 q0 35 -10.5 68.5t-38.5 59.5t-76 42t-123 16h-338v-354zM461 870h319q110 0 163.5 42.5t53.5 111.5q0 27 -7 54t-26.5 49t-54.5 35.5t-92 13.5h-356v-306z" />
<glyph unicode="C" horiz-adv-x="1352" d="M133 717q0 82 14 168.5t43.5 168.5t77 155t114 128t154.5 87t199 32q103 0 187 -28t148 -73.5t108.5 -103.5t68.5 -118l-248 -113q-26 40 -53 72t-58 53.5t-68.5 33t-84.5 11.5q-60 0 -107 -20.5t-82 -55.5t-59 -82t-39 -99.5t-21.5 -108t-6.5 -107.5q0 -84 18 -168 t56 -152t97.5 -110.5t143.5 -42.5q44 0 81 13.5t68.5 37.5t59 58t51.5 75l254 -96q-34 -79 -82 -144.5t-111.5 -112t-143.5 -72.5t-177 -26q-112 0 -200 30t-155 83t-114 124t-76.5 153.5t-43 171.5t-13.5 178z" />
<glyph unicode="D" horiz-adv-x="1495" d="M184 0v1434h484q125 0 225 -28.5t177.5 -78.5t132.5 -118.5t90.5 -148t52 -167.5t16.5 -176q0 -82 -15.5 -167.5t-49.5 -165t-88.5 -149.5t-133 -122.5t-181.5 -82.5t-235 -30h-475zM461 262h231q107 0 180 41.5t118 107t65 146.5t20 160q0 84 -21 165.5t-64.5 145.5 t-112 103.5t-162.5 39.5h-254v-909z" />
<glyph unicode="E" horiz-adv-x="1319" d="M184 0v1434h979v-263h-702v-301h413v-262h-413v-346h745v-262h-1022z" />
<glyph unicode="F" horiz-adv-x="1217" d="M184 0v1434h961v-263h-684v-301h434v-262h-434v-608h-277z" />
<glyph unicode="G" horiz-adv-x="1419" d="M133 717q0 87 16.5 176t51 171.5t86 154.5t122 125t159 83.5t196.5 30.5q104 0 183.5 -26t141 -68.5t107 -98t82.5 -114.5l-244 -139q-24 36 -52 68.5t-60.5 57.5t-71.5 39.5t-86 14.5q-67 0 -118 -20.5t-89.5 -56t-64.5 -82.5t-42 -100t-23 -108.5t-7 -107.5 q0 -91 19 -176.5t60.5 -152t107 -106.5t157.5 -40q52 0 97.5 18.5t79.5 50t53.5 74.5t19.5 92v12h-244v263h526v-211q0 -138 -41 -243.5t-112.5 -177t-168.5 -108.5t-210 -37q-111 0 -201 29t-160 80t-121 121.5t-84 152.5t-49 173.5t-16 185.5z" />
<glyph unicode="H" horiz-adv-x="1522" d="M184 0v1434h277v-566h600v566h276v-1434h-276v606h-600v-606h-277z" />
<glyph unicode="I" horiz-adv-x="666" d="M195 0v1434h276v-1434h-276z" />
<glyph unicode="J" horiz-adv-x="1198" d="M51 291l242 112q40 -77 99.5 -119t139.5 -42q42 0 81 11.5t69 42.5t48 85.5t18 140.5v912h276v-936q0 -102 -21 -181t-57 -137t-84 -97.5t-103 -63t-113 -34t-114 -10.5q-78 0 -149.5 21.5t-133 62t-112 99t-86.5 133.5z" />
<glyph unicode="K" horiz-adv-x="1501" d="M184 0v1434h277v-684l543 684h327l-418 -514l506 -920h-323l-369 686l-266 -328v-358h-277z" />
<glyph unicode="L" horiz-adv-x="1184" d="M184 0v1434h277v-1168h692v-266h-969z" />
<glyph unicode="M" horiz-adv-x="1698" d="M184 0v1434h281l352 -791q11 -26 20 -49.5t17 -48.5q8 25 17 48.5t20 49.5l358 791h264v-1434h-276v737q0 12 0.5 28t1 32.5t1 30.5t1.5 22q-11 -34 -21.5 -61t-21.5 -52l-348 -762l-350 762q-11 25 -21.5 52t-21.5 61q1 -8 1.5 -22t1 -30.5t1 -32.5t0.5 -28v-737h-277z " />
<glyph unicode="N" horiz-adv-x="1511" d="M184 0v1434h260l555 -826q13 -20 30 -50t30 -58q-3 29 -4.5 58.5t-1.5 49.5v826h274v-1434h-246l-569 836q-14 21 -30.5 51.5t-28.5 56.5q3 -23 4.5 -54t1.5 -54v-836h-275z" />
<glyph unicode="O" horiz-adv-x="1530" d="M133 717q0 88 14.5 177.5t46 172t81.5 154t120.5 124t162.5 83t208 30.5t207.5 -30.5t161.5 -83t120 -124t81.5 -154t46 -172t14.5 -177.5q0 -89 -14.5 -178.5t-46 -172t-81.5 -154t-120 -124t-161.5 -83t-207.5 -30.5t-208 30.5t-162.5 83t-120.5 124t-81.5 154t-46 172 t-14.5 178.5zM420 717q0 -82 18 -166.5t58.5 -153t106.5 -112t163 -43.5q96 0 161.5 45t106 115t58.5 153.5t18 161.5q0 55 -7.5 111.5t-24.5 109t-44 99t-65 81t-88.5 54.5t-114.5 20q-65 0 -115.5 -21t-89 -56.5t-65.5 -82.5t-44 -100t-24.5 -108t-7.5 -107z" />
<glyph unicode="P" horiz-adv-x="1370" d="M184 0v1434h615q136 0 229 -39.5t151 -104t83.5 -145.5t25.5 -164q0 -52 -12 -105.5t-37 -104t-64 -94.5t-93.5 -77.5t-125 -52.5t-157.5 -19h-338v-528h-277zM461 791h350q53 0 89 17t58.5 44t32.5 61t10 68q0 31 -8.5 64.5t-30 61.5t-58.5 46t-93 18h-350v-380z" />
<glyph unicode="Q" horiz-adv-x="1530" d="M133 717q0 88 14.5 177.5t46 172t81.5 154t120.5 124t162.5 83t208 30.5t207.5 -30.5t161.5 -83t120 -124t81.5 -154t46 -172t14.5 -177.5q0 -80 -12 -160.5t-37.5 -156.5t-65 -144t-94.5 -123l94 -139l-205 -135l-100 147q-48 -14 -100 -22.5t-111 -8.5 q-116 0 -208 30.5t-162.5 83t-120.5 124t-81.5 154t-46 172t-14.5 178.5zM420 717q0 -82 18 -166.5t58.5 -153t106.5 -112t163 -43.5q12 0 25.5 1t25.5 3l-106 157l209 136l102 -156q24 35 40.5 76t27 84.5t15.5 87.5t5 86q0 55 -7.5 111.5t-24.5 109t-44 99t-65 81 t-88.5 54.5t-114.5 20q-65 0 -115.5 -21t-89 -56.5t-65.5 -82.5t-44 -100t-24.5 -108t-7.5 -107z" />
<glyph unicode="R" horiz-adv-x="1462" d="M184 0v1434h666q136 0 227.5 -37.5t147.5 -99.5t80 -143t24 -169q0 -61 -17.5 -123.5t-52.5 -118.5t-87 -101.5t-121 -70.5l278 -571h-311l-268 535h-289v-535h-277zM461 797h393q53 0 89 15.5t58 41.5t31.5 60t9.5 71q0 34 -8.5 67.5t-29.5 60t-57.5 42.5t-92.5 16h-393 v-374z" />
<glyph unicode="S" horiz-adv-x="1300" d="M102 369l252 94q23 -50 55.5 -91.5t72.5 -71t86.5 -46t99.5 -16.5q52 0 94.5 11t73 33t47 54.5t16.5 75.5q0 52 -32 87.5t-84 62t-118.5 48t-136 45.5t-136 56t-118.5 79t-84 113t-32 160q0 81 32.5 152.5t94.5 125.5t152 85.5t206 31.5q97 0 175.5 -25t138.5 -69.5 t101 -105t62 -132.5l-248 -82q-13 32 -35 60t-52.5 48.5t-70 32t-87.5 11.5q-90 0 -140.5 -36t-50.5 -101q0 -43 32 -72t84 -52.5t118.5 -44.5t136.5 -46.5t136.5 -60t118.5 -85t84 -120t32 -166.5q0 -105 -40 -186t-109.5 -137t-164.5 -85t-205 -29q-101 0 -189 27.5 t-159.5 78.5t-124.5 124t-84 164z" />
<glyph unicode="T" horiz-adv-x="1280" d="M92 1167v267h1096v-267h-410v-1167h-276v1167h-410z" />
<glyph unicode="U" horiz-adv-x="1503" d="M174 549v885h277v-885q0 -89 20.5 -148.5t59.5 -94.5t95 -49.5t126 -14.5q69 0 124.5 14.5t95 49.5t60.5 94.5t21 148.5v885h276v-885q0 -160 -48 -269.5t-128.5 -177t-184.5 -97.5t-216 -30q-73 0 -144.5 12.5t-135.5 40.5t-118.5 72.5t-94.5 108.5t-62.5 148t-22.5 192 z" />
<glyph unicode="V" horiz-adv-x="1444" d="M82 1434h299l315 -938q8 -23 15.5 -49.5t13.5 -49.5q5 22 12 48t15 51l315 938h295l-506 -1434h-266z" />
<glyph unicode="W" horiz-adv-x="1786" d="M92 1434h285l160 -807q8 -37 11.5 -61t6.5 -46q3 22 7 46.5t13 62.5l197 805h240l200 -805q10 -38 14 -62.5t7 -46.5q3 22 6.5 46t11.5 61l160 807h283l-310 -1434h-258l-217 844q-9 34 -13 60.5t-7 47.5q-3 -21 -8 -47.5t-13 -58.5l-211 -846h-258z" />
<glyph unicode="X" horiz-adv-x="1458" d="M102 0l465 739l-436 695h324l274 -439l275 439h323l-436 -695l465 -739h-324l-303 481l-303 -481h-324z" />
<glyph unicode="Y" horiz-adv-x="1458" d="M61 1434h314l354 -586l354 586h314l-531 -875v-559h-274v559z" />
<glyph unicode="Z" horiz-adv-x="1362" d="M113 0v211l749 960h-704v263h1071v-211l-756 -961h756v-262h-1116z" />
<glyph unicode="[" horiz-adv-x="799" d="M205 -266v1724h512v-256h-246v-1212h246v-256h-512z" />
<glyph unicode="\" horiz-adv-x="1069" d="M-31 1458h275l805 -1724h-275z" />
<glyph unicode="]" horiz-adv-x="799" d="M82 -10h244v1212h-244v256h512v-1724h-512v256z" />
<glyph unicode="^" d="M119 696l426 762h200l426 -762h-276l-250 416l-250 -416h-276z" />
<glyph unicode="_" horiz-adv-x="1024" d="M-10 -158h1044v-204h-1044v204z" />
<glyph unicode="`" horiz-adv-x="973" d="M174 1499h332l291 -319h-258z" />
<glyph unicode="a" horiz-adv-x="1143" d="M92 322q0 90 36 155.5t94.5 108t133 62.5t152.5 20q75 0 133.5 -13.5t106.5 -36.5v54q0 86 -49 126t-140 40q-93 0 -171 -27t-152 -78l-82 215q37 25 83.5 47.5t100.5 39.5t115.5 26.5t128.5 9.5q47 0 97 -5t97.5 -20t90 -43t74.5 -72.5t50.5 -109t18.5 -153.5v-668h-262 v76q-18 -19 -43.5 -37t-59.5 -32.5t-75.5 -23t-92.5 -8.5q-81 0 -151 22t-122 66t-82 108.5t-30 150.5zM352 322q0 -51 45 -82t131 -31q73 0 127 25.5t93 60.5v113q-41 15 -91.5 24.5t-103.5 9.5q-41 0 -77.5 -6.5t-64 -21t-43.5 -37.5t-16 -55z" />
<glyph unicode="b" horiz-adv-x="1180" d="M154 0v1358l266 121v-508q34 45 90 72.5t133 27.5q94 0 173.5 -37.5t137.5 -108t90.5 -172t32.5 -229.5q0 -133 -31 -235.5t-89 -172t-140 -105.5t-184 -36q-76 0 -127.5 25.5t-85.5 75.5v-76h-266zM420 315q29 -40 73 -62t109 -22q51 0 90 20.5t65.5 59t40 92.5 t13.5 121q0 141 -54.5 216t-154.5 75q-34 0 -63 -7.5t-52 -20t-40 -28t-27 -30.5v-414z" />
<glyph unicode="c" horiz-adv-x="1120" d="M102 522q0 128 34 230t96 173t150.5 108.5t197.5 37.5q160 0 272.5 -73.5t163.5 -233.5l-254 -84q-23 60 -68 97.5t-108 37.5q-49 0 -88.5 -21t-67 -59t-42.5 -92t-15 -121t15 -120.5t42 -91.5t65 -58.5t85 -20.5q68 0 115 39t69 113l254 -76q-47 -165 -157.5 -248.5 t-280.5 -83.5q-109 0 -197.5 37.5t-150.5 108t-96 172t-34 229.5z" />
<glyph unicode="d" horiz-adv-x="1180" d="M102 524q0 128 33 229.5t91 172t137.5 108t173.5 37.5q77 0 133 -27.5t90 -72.5v387l266 121v-1479h-266v76q-32 -48 -88.5 -74.5t-136.5 -26.5q-98 0 -178 36t-136.5 105.5t-87.5 172t-31 235.5zM369 524q0 -67 13.5 -121t40 -92.5t65.5 -59t90 -20.5q65 0 109 22t73 62 v414q-10 15 -27 30.5t-40.5 28t-52 20t-62.5 7.5q-101 0 -155 -75t-54 -216z" />
<glyph unicode="e" horiz-adv-x="1147" d="M102 524q0 128 34 229.5t98 172t154.5 108t203.5 37.5q97 0 182 -30t147 -91t98 -153.5t36 -218.5q0 -31 -1 -73.5t-7 -84.5h-682q4 -51 24 -90t50.5 -66t69.5 -41t83 -14q72 0 126 25.5t99 82.5l164 -165q-66 -81 -162 -129t-227 -48q-114 0 -204.5 37.5t-154 108.5 t-97.5 173t-34 230zM367 645h428q-13 93 -68 143t-135 50q-94 0 -153.5 -47t-71.5 -146z" />
<glyph unicode="f" horiz-adv-x="739" d="M72 813v234h145v159q0 78 22.5 127t59 76.5t82.5 38t94 10.5q63 0 120 -11.5t114 -39.5v-217q-31 12 -54 18.5t-41 10.5t-31 5t-24 1q-34 0 -55 -17.5t-21 -54.5v-106h226v-234h-226v-813h-266v813h-145z" />
<glyph unicode="g" horiz-adv-x="1180" d="M102 524q0 128 31.5 229.5t89 172t137.5 108t177 37.5q140 0 223 -80v56h266v-916q0 -59 -5.5 -117.5t-18 -110.5t-32.5 -96t-50 -75q-40 -40 -86 -65.5t-95.5 -41.5t-102 -23.5t-104.5 -11.5l-147 222q105 7 177 20t116 38t63 63t19 94v28q-47 -46 -105.5 -63 t-119.5 -17q-95 0 -174 34.5t-137 103.5t-90 171.5t-32 239.5zM369 524q0 -64 12.5 -117.5t38.5 -92.5t65.5 -61t92.5 -22q65 0 108 22t74 62v414q-12 15 -28 30.5t-38.5 28t-51 20t-64.5 7.5q-101 0 -155 -75t-54 -216z" />
<glyph unicode="h" horiz-adv-x="1210" d="M154 0v1356l266 123v-531q48 59 118.5 91t161.5 32q67 0 133 -20t118 -68t84 -127t32 -197v-659h-266v614q0 53 -14 91t-39 62.5t-58 36t-72 11.5q-41 0 -77 -10.5t-63 -34t-42.5 -61t-15.5 -91.5v-618h-266z" />
<glyph unicode="i" horiz-adv-x="578" d="M133 1325q0 32 12.5 60t33.5 49t49.5 33t60.5 12t60.5 -12t49.5 -33t33 -49t12 -60t-12 -60.5t-33 -49.5t-49.5 -33.5t-60.5 -12.5t-60.5 12.5t-49.5 33.5t-33.5 49.5t-12.5 60.5zM156 0v1047h266v-1047h-266z" />
<glyph unicode="j" horiz-adv-x="578" d="M-137 -227q81 18 137 37.5t90.5 45t50 58.5t15.5 78v1055h266v-990q0 -45 -4 -89.5t-15 -87t-31 -81.5t-53 -73q-37 -39 -77.5 -66.5t-82 -46.5t-83 -31t-78.5 -20zM133 1325q0 32 12.5 60t33.5 49t49.5 33t60.5 12t60.5 -12t49.5 -33t33 -49t12 -60t-12 -60.5t-33 -49.5 t-49.5 -33.5t-60.5 -12.5t-60.5 12.5t-49.5 33.5t-33.5 49.5t-12.5 60.5z" />
<glyph unicode="k" horiz-adv-x="1159" d="M154 0v1354l266 125v-717l280 285h320l-307 -304l385 -743h-291l-289 553l-98 -94v-459h-266z" />
<glyph unicode="l" horiz-adv-x="594" d="M164 0v1354l266 125v-1479h-266z" />
<glyph unicode="m" horiz-adv-x="1792" d="M154 0v1047h266v-97q42 56 103 88.5t145 32.5q99 0 165 -37.5t103 -109.5q56 77 140 112t181 35q83 0 155 -20.5t124.5 -68.5t82.5 -127.5t30 -197.5v-657h-267v616q0 66 -16 105.5t-40 60.5t-53 27t-56 6q-30 0 -62.5 -6.5t-59 -27t-44 -59.5t-17.5 -104v-618h-266v616 q0 66 -16 105.5t-40 60.5t-53.5 27t-56.5 6q-29 0 -61 -6.5t-59 -27t-44.5 -59.5t-17.5 -104v-618h-266z" />
<glyph unicode="n" horiz-adv-x="1210" d="M154 0v1047h266v-99q48 59 118.5 91t161.5 32q67 0 133 -20t118 -68t84 -127t32 -197v-659h-266v614q0 53 -14 91t-39 62.5t-58 36t-72 11.5q-41 0 -77 -10.5t-63 -34t-42.5 -61t-15.5 -91.5v-618h-266z" />
<glyph unicode="o" horiz-adv-x="1167" d="M102 522q0 128 34 230t96.5 173t151.5 108.5t200 37.5t200 -37.5t151.5 -108.5t96 -173t33.5 -230t-33.5 -229.5t-96 -172t-151.5 -108t-200 -37.5t-200 37.5t-151.5 108t-96.5 172t-34 229.5zM369 522q0 -68 15 -122t42.5 -91.5t67.5 -57.5t90 -20t90 20t67.5 57.5 t42.5 91.5t15 122q0 69 -15 123t-42.5 92t-67.5 58t-90 20t-90 -20t-67.5 -58t-42.5 -92t-15 -123z" />
<glyph unicode="p" horiz-adv-x="1180" d="M154 -410v1457h266v-76q34 45 90.5 72.5t134.5 27.5q97 0 177 -36t136.5 -105.5t87.5 -172t31 -235.5q0 -128 -32.5 -229.5t-90.5 -172t-137.5 -108t-173.5 -37.5q-77 0 -133 28t-90 73v-365zM420 317q10 -15 27 -30.5t40 -28t52 -20t63 -7.5q100 0 154.5 75.5 t54.5 215.5q0 67 -13.5 121t-40 92t-65.5 59t-90 21q-65 0 -109 -22t-73 -62v-414z" />
<glyph unicode="q" horiz-adv-x="1180" d="M102 522q0 133 32.5 235.5t91.5 172t141 105.5t180 36q75 0 127 -25.5t86 -74.5v76h266v-1336l-266 -121v486q-34 -45 -90 -73t-133 -28q-94 0 -173.5 37.5t-137.5 108t-91 172t-33 229.5zM369 522q0 -140 54 -215.5t155 -75.5q34 0 62.5 7.5t52 20t40.5 28t27 30.5v414 q-29 40 -73 62t-109 22q-51 0 -90 -21t-65.5 -59t-40 -92t-13.5 -121z" />
<glyph unicode="r" horiz-adv-x="879" d="M154 0v1047h266v-93q22 50 69.5 83.5t124.5 33.5q65 0 116.5 -21t96.5 -59l-36 -243q-38 26 -83.5 43.5t-107.5 17.5q-35 0 -67.5 -10t-57.5 -35t-40 -69t-15 -111v-584h-266z" />
<glyph unicode="s" horiz-adv-x="1012" d="M82 164l176 149q17 -16 41.5 -35.5t56 -36.5t69 -28.5t79.5 -11.5q69 0 113.5 20.5t44.5 71.5q0 25 -15.5 45t-44.5 37.5t-71 34.5t-95 36q-74 27 -134 56t-102 66.5t-64.5 87.5t-22.5 120q0 72 30 127t81.5 92.5t121 56.5t148.5 19q67 0 125 -14t105.5 -37t85.5 -53.5 t67 -63.5l-179 -145q-15 15 -34.5 31t-44.5 28.5t-56.5 20.5t-68.5 8q-60 0 -97 -20t-37 -58q0 -21 17 -39t45.5 -33t65.5 -28.5t77 -26.5q67 -22 129.5 -50t110 -68t76 -96t28.5 -134q0 -77 -29 -136t-82.5 -99.5t-129 -61.5t-168.5 -21q-64 0 -125.5 13.5t-116.5 38 t-100 59.5t-76 78z" />
<glyph unicode="t" horiz-adv-x="805" d="M61 813v234h150v305l266 127v-432h234v-234h-234v-522q0 -40 19.5 -61t54.5 -21q40 0 83 11.5t89 33.5l-31 -231q-46 -23 -104 -35.5t-123 -12.5q-68 0 -116 19t-78.5 54.5t-45 87t-14.5 116.5v561h-150z" />
<glyph unicode="u" horiz-adv-x="1210" d="M143 387v660h267v-615q0 -53 14 -91t38.5 -62.5t57.5 -36t72 -11.5q41 0 77.5 10.5t63.5 34t42.5 61t15.5 91.5v619h266v-1047h-266v98q-48 -59 -119 -91t-162 -32q-67 0 -132.5 20.5t-117.5 68.5t-84.5 127t-32.5 196z" />
<glyph unicode="v" horiz-adv-x="1145" d="M51 1047h275l219 -621q8 -23 15 -47.5t13 -48.5q13 48 29 96l217 621h275l-383 -1047h-277z" />
<glyph unicode="w" horiz-adv-x="1538" d="M72 1047h262l123 -510q8 -31 14 -68.5t12 -69.5q7 32 15 69.5t16 68.5l133 510h242l131 -510q8 -31 16 -68.5t15 -69.5q6 32 12 69.5t14 68.5l127 510h262l-295 -1047h-235l-133 522q-4 14 -8.5 33.5t-9.5 41t-9.5 42.5t-7.5 39q-3 -18 -7.5 -39t-9.5 -42.5t-9.5 -41 t-8.5 -33.5l-133 -522h-235z" />
<glyph unicode="x" horiz-adv-x="1210" d="M72 0l379 543l-353 504h310l137 -199q17 -25 33.5 -50.5t25.5 -45.5q11 20 27.5 46.5t32.5 49.5l139 199h309l-352 -504l379 -543h-310l-165 236q-16 23 -32.5 49.5t-27.5 46.5q-9 -20 -25.5 -46t-33.5 -50l-164 -236h-309z" />
<glyph unicode="y" horiz-adv-x="1167" d="M51 1047h273l229 -605q18 -47 31 -96q6 25 14 49t16 47l230 605h272l-555 -1444h-276l159 411z" />
<glyph unicode="z" horiz-adv-x="1114" d="M113 0v209l540 600h-501v238h839v-203l-538 -606h536v-238h-876z" />
<glyph unicode="{" horiz-adv-x="778" d="M82 475v242h61q41 0 61.5 35.5t20.5 91.5v133q0 117 33.5 206t95.5 149t148.5 91.5t193.5 34.5v-244q-102 -5 -153 -56.5t-51 -145.5v-148q0 -60 -10 -104.5t-28.5 -77t-45 -53.5t-58.5 -33q65 -25 103.5 -93t38.5 -177v-148q0 -94 51 -146t153 -57v-241 q-107 2 -193.5 33t-148.5 91t-95.5 149t-33.5 206v135q0 57 -20.5 92t-61.5 35h-61z" />
<glyph unicode="|" horiz-adv-x="614" d="M174 -420v2069h266v-2069h-266z" />
<glyph unicode="}" horiz-adv-x="778" d="M82 -25q102 5 153.5 57t51.5 146v148q0 109 38 177t103 93q-32 12 -58 33t-44.5 53.5t-28.5 77t-10 104.5v148q0 94 -51.5 145.5t-153.5 56.5v244q107 -3 194 -34.5t148.5 -91.5t95 -149t33.5 -206v-133q0 -56 21 -91.5t61 -35.5h61v-242h-61q-40 0 -61 -35t-21 -92v-135 q0 -117 -33.5 -206t-95 -149t-148.5 -91t-194 -33v241z" />
<glyph unicode="~" d="M160 518q0 73 16 140t51 118.5t90.5 82t133.5 30.5q65 0 116 -17.5t94.5 -38t82 -38t79.5 -17.5q47 0 68.5 30.5t26.5 80.5h210q0 -73 -15.5 -140t-50 -118.5t-90 -82t-134.5 -30.5q-66 0 -118.5 17.5t-96.5 38t-82.5 38t-75.5 17.5q-47 0 -68 -31.5t-26 -79.5h-211z" />
<glyph unicode="&#xa1;" horiz-adv-x="614" d="M129 897q0 36 14 67.5t38.5 55.5t57 37.5t70.5 13.5t70 -13.5t55.5 -37.5t37 -55.5t13.5 -67.5t-13.5 -68t-37 -56t-55.5 -38t-70 -14t-70.5 14t-57 38t-38.5 56t-14 68zM176 53l57 600h152l57 -600v-463h-266v463z" />
<glyph unicode="&#xa2;" horiz-adv-x="1120" d="M102 717q0 103 22.5 190.5t65 155t103 114t135.5 68.5v213h256v-201q121 -21 205.5 -94t126.5 -205l-254 -84q-23 60 -68 98t-108 38q-49 0 -88.5 -21t-67 -59t-42.5 -92t-15 -121t15 -120.5t42 -91.5t65 -58.5t85 -20.5q68 0 115 38.5t69 113.5l254 -76 q-38 -138 -123.5 -218.5t-210.5 -103.5v-205h-256v218q-77 22 -137.5 67.5t-102.5 112t-64 153t-22 191.5z" />
<glyph unicode="&#xa3;" horiz-adv-x="1229" d="M154 551v246h110q-20 45 -36.5 105.5t-16.5 129.5q0 81 29 157.5t88.5 136t151.5 96t218 36.5q73 0 135 -9.5t117.5 -28.5t106.5 -47.5t102 -65.5l-104 -254q-28 23 -62 48.5t-77 47t-97 35.5t-121 14q-57 0 -97.5 -14t-66 -36.5t-37.5 -52.5t-12 -61q0 -21 4.5 -43.5 t13.5 -50t23.5 -62.5t34.5 -81h348v-246h-309q-5 -77 -28 -151.5t-72 -139.5h667v-260h-1005v254q44 20 74 54.5t49 75.5t28.5 85t12.5 82h-172z" />
<glyph unicode="&#xa4;" horiz-adv-x="1331" d="M74 289l149 149q-49 107 -49 244q0 69 14.5 130t38.5 114l-153 153l192 193l144 -144q54 29 117.5 45.5t138.5 16.5q68 0 131.5 -15.5t117.5 -46.5l142 144l200 -199l-151 -149q22 -51 36.5 -114t14.5 -128q0 -69 -13.5 -132.5t-39.5 -117.5l153 -149l-194 -193l-145 146 q-54 -29 -118.5 -45.5t-133.5 -16.5q-73 0 -135 15t-117 44l-142 -143zM446 682q0 -54 16 -99.5t45 -78.5t69.5 -51.5t89.5 -18.5t89.5 18.5t69 51.5t44.5 78.5t16 99.5t-16 99.5t-44.5 78.5t-69 51.5t-89.5 18.5t-89.5 -18.5t-69.5 -51.5t-45 -78.5t-16 -99.5z" />
<glyph unicode="&#xa5;" horiz-adv-x="1245" d="M31 1434h307l285 -510l280 510h311l-423 -729h241v-201h-276v-133h276v-201h-276v-170h-267v170h-276v201h276v133h-276v201h240z" />
<glyph unicode="&#xa6;" horiz-adv-x="614" d="M174 -246v719h266v-719h-266zM174 756v719h266v-719h-266z" />
<glyph unicode="&#xa7;" horiz-adv-x="1085" d="M102 -45l193 164q20 -18 46 -37.5t58.5 -35.5t70.5 -26t81 -10q31 0 59 5.5t49.5 17.5t34.5 31.5t13 48.5q0 25 -20 48t-57 45.5t-89.5 46.5t-116.5 52q-56 24 -110 51t-96 65t-67.5 90t-25.5 126q0 71 34 127.5t91 93.5q-60 48 -92.5 110.5t-32.5 139.5q0 84 31 149.5 t86 110t130.5 67.5t164.5 23q70 0 130 -13t110.5 -37t91.5 -57t73 -73l-201 -162q-16 16 -36.5 31.5t-46 27.5t-56 19.5t-65.5 7.5q-62 0 -99 -24t-37 -64q0 -23 20.5 -44t55 -41t80 -39.5t96.5 -39.5q62 -24 121.5 -52.5t106 -68.5t74.5 -96t28 -137q0 -75 -27.5 -130 t-83.5 -95q57 -51 84 -111.5t27 -140.5q0 -86 -29 -153.5t-84.5 -114.5t-136.5 -72t-184 -25q-143 0 -257.5 52t-189.5 149zM401 664q0 -23 18 -43t52 -39.5t83.5 -39.5t113.5 -44q18 8 28.5 28.5t10.5 44.5q0 27 -19 49.5t-51.5 42t-75 36.5t-90.5 34q-34 -6 -52 -24.5 t-18 -44.5z" />
<glyph unicode="&#xa8;" horiz-adv-x="973" d="M141 1339q0 31 11.5 58.5t32 48t47.5 32t59 11.5q31 0 58.5 -11.5t47.5 -32t31.5 -48t11.5 -58.5q0 -32 -11.5 -59t-31.5 -47t-47.5 -31.5t-58.5 -11.5q-32 0 -59 11.5t-47.5 31.5t-32 47t-11.5 59zM530 1339q0 31 11.5 58.5t32 48t47.5 32t59 11.5q31 0 58.5 -11.5 t47.5 -32t31.5 -48t11.5 -58.5q0 -32 -11.5 -59t-31.5 -47t-47.5 -31.5t-58.5 -11.5q-32 0 -59 11.5t-47.5 31.5t-32 47t-11.5 59z" />
<glyph unicode="&#xa9;" horiz-adv-x="1729" d="M123 717q0 105 25.5 200.5t73 178t114.5 149.5t149.5 114.5t178 73t200.5 25.5t201 -25.5t178 -73t149.5 -114.5t114.5 -149.5t73 -178t26 -200.5t-26 -201t-73 -178t-114.5 -149.5t-149.5 -114.5t-178 -73t-201 -26q-158 0 -293 57t-235 156.5t-156.5 235t-56.5 293.5z M311 717q0 -121 41.5 -224.5t115 -179t175 -118.5t221.5 -43q121 0 222.5 43t175 118.5t114.5 179t41 224.5q0 120 -41 223.5t-114.5 179.5t-175 119t-222.5 43q-120 0 -221.5 -43t-175 -119t-115 -179.5t-41.5 -223.5zM500 717q0 75 19.5 154.5t63 144t114 106t173.5 41.5 q58 0 106.5 -14t87 -39t67.5 -60t49 -77l-187 -88q-23 38 -51 58t-72 20t-73.5 -23.5t-47.5 -59.5t-26 -79.5t-8 -83.5q0 -43 9.5 -87t28.5 -79t48 -57.5t69 -22.5q41 0 71.5 21.5t51.5 56.5l189 -66q-48 -105 -123.5 -159t-188.5 -54q-105 0 -176 39.5t-114 103 t-61.5 143.5t-18.5 161z" />
<glyph unicode="&#xaa;" horiz-adv-x="903" d="M72 844q0 75 27.5 129t72.5 89t102.5 51.5t116.5 16.5q57 0 102 -10t82 -30v40q0 72 -37 105t-106 33t-128.5 -22t-115.5 -64l-67 176q60 42 145 71t191 29q55 0 114 -10.5t108 -45t80.5 -100t31.5 -174.5v-548h-216v61q-27 -31 -78.5 -56.5t-129.5 -25.5 q-62 0 -115.5 18t-93.5 54t-63 89.5t-23 123.5zM285 844q0 -42 33 -67t96 -25q54 0 94 20t67 49v92q-29 13 -67 21t-76 8q-30 0 -56.5 -5.5t-47 -17.5t-32 -30.5t-11.5 -44.5z" />
<glyph unicode="&#xab;" horiz-adv-x="1151" d="M61 524l312 523h286l-311 -523l311 -524h-286zM522 524l312 523h286l-311 -523l311 -524h-286z" />
<glyph unicode="&#xac;" d="M164 725v258h962v-653h-266v395h-696z" />
<glyph unicode="&#xad;" horiz-adv-x="844" d="M154 477v256h536v-256h-536z" />
<glyph unicode="&#xae;" horiz-adv-x="1729" d="M123 717q0 105 25.5 200.5t73 178t114.5 149.5t149.5 114.5t178 73t200.5 25.5t201 -25.5t178 -73t149.5 -114.5t114.5 -149.5t73 -178t26 -200.5t-26 -201t-73 -178t-114.5 -149.5t-149.5 -114.5t-178 -73t-201 -26q-158 0 -293 57t-235 156.5t-156.5 235t-56.5 293.5z M311 717q0 -121 41.5 -224.5t115 -179t175 -118.5t221.5 -43q121 0 222.5 43t175 118.5t114.5 179t41 224.5q0 120 -41 223.5t-114.5 179.5t-175 119t-222.5 43q-120 0 -221.5 -43t-175 -119t-115 -179.5t-41.5 -223.5zM571 285v864h340q84 0 139 -23t87.5 -61t45.5 -86.5 t13 -99.5q0 -38 -10 -75t-31.5 -69t-54.5 -58.5t-78 -43.5q15 -30 37 -75t46 -94.5t47 -97t40 -81.5h-234l-153 323h-33v-323h-201zM772 799h139q23 0 39 7.5t26 19t14.5 25.5t4.5 28q0 12 -4 26t-13.5 25.5t-25.5 19.5t-41 8h-139v-159z" />
<glyph unicode="&#xaf;" horiz-adv-x="973" d="M147 1202v217h676v-217h-676z" />
<glyph unicode="&#xb0;" horiz-adv-x="844" d="M51 1284q0 78 29 144.5t79 115.5t117.5 77t145.5 28t145.5 -28t117.5 -77t79 -115.5t29 -144.5t-29 -145t-79 -117t-117.5 -78.5t-145.5 -28.5t-145.5 28.5t-117.5 78.5t-79 117t-29 145zM295 1284q0 -29 9.5 -54.5t26.5 -44.5t40 -29.5t51 -10.5t51 10.5t40 29.5 t26.5 44.5t9.5 54.5q0 28 -9.5 52.5t-26.5 42.5t-40 28t-51 10t-51 -10t-40 -28t-26.5 -42.5t-9.5 -52.5z" />
<glyph unicode="&#xb1;" d="M164 0v258h962v-258h-962zM164 690v258h348v297h266v-297h348v-258h-348v-297h-266v297h-348z" />
<glyph unicode="&#xb2;" horiz-adv-x="758" d="M49 909q0 100 23 179.5t63.5 141t95.5 107t119 78.5q18 10 35.5 20.5t31 22t21.5 25t8 30.5q0 29 -19.5 49.5t-57.5 20.5q-47 0 -74 -26t-41 -74l-203 49q17 57 47 104t71.5 80.5t94.5 52.5t115 19q68 0 123.5 -19.5t95 -54.5t61 -84t21.5 -108q0 -61 -18 -103.5 t-48.5 -74.5t-71.5 -56.5t-87 -48.5q-51 -28 -87 -57.5t-53 -63.5h363v-209h-629z" />
<glyph unicode="&#xb3;" horiz-adv-x="727" d="M25 1147l206 53q14 -54 45.5 -79t73.5 -25t65 23t23 59q0 37 -25 59.5t-85 22.5h-78v188h76q46 0 65 21t19 49q0 29 -19 49t-53 20q-40 0 -61 -19.5t-35 -54.5l-189 70q40 97 119 151t184 54q65 0 116 -20t86.5 -54t54 -78.5t18.5 -93.5q0 -32 -9 -60t-24 -52t-34.5 -42 t-41.5 -30q63 -23 100 -72.5t37 -124.5q0 -58 -20.5 -107t-60.5 -84t-97.5 -55t-132.5 -20q-121 0 -203.5 66.5t-119.5 185.5z" />
<glyph unicode="&#xb4;" horiz-adv-x="973" d="M174 1180l291 319h332l-365 -319h-258z" />
<glyph unicode="&#xb5;" horiz-adv-x="1221" d="M154 -410v1457h266v-615q0 -53 14 -91t38.5 -62.5t58 -36t71.5 -11.5q42 0 78 10.5t63 34t42.5 61t15.5 91.5v619h266v-1047h-266v96q-29 -52 -85 -86.5t-134 -34.5q-53 0 -95 16t-65 36v-312z" />
<glyph unicode="&#xb6;" horiz-adv-x="1325" d="M41 993q0 81 24.5 160.5t81 141.5t147.5 100.5t224 38.5h643v-1534l-266 -121v1399h-150v-1467l-266 -121v971q-117 5 -200 45.5t-136 102t-77.5 136t-24.5 148.5z" />
<glyph unicode="&#xb7;" horiz-adv-x="494" d="M74 715q0 35 13 66t36 54t54.5 36.5t68.5 13.5t68.5 -13.5t55 -36.5t37 -54t13.5 -66t-13.5 -66t-37 -53.5t-55 -35.5t-68.5 -13t-68.5 13t-54.5 35.5t-36 53.5t-13 66z" />
<glyph unicode="&#xb8;" horiz-adv-x="973" d="M233 -403l115 86q13 -16 34 -27.5t50 -11.5q48 0 73 21t25 59q0 37 -26 58t-74 21q-25 0 -46.5 -7t-41.5 -21l-55 67l147 178h144l-72 -114q60 0 103.5 -14t72 -39t42 -59t13.5 -73q0 -48 -18.5 -88.5t-54 -70t-87 -46t-118.5 -16.5q-87 0 -141 27.5t-85 69.5z" />
<glyph unicode="&#xb9;" horiz-adv-x="459" d="M20 1544v170q35 0 60 4t42.5 12t29.5 19t20 25h178v-865h-225v635h-105z" />
<glyph unicode="&#xba;" horiz-adv-x="952" d="M82 1008q0 105 28 188.5t79.5 141.5t124.5 89t163 31q91 0 163.5 -31t123.5 -89t78.5 -141.5t27.5 -188.5t-27.5 -188.5t-78.5 -141.5t-123.5 -88.5t-163.5 -30.5q-90 0 -163 30.5t-124.5 88.5t-79.5 141.5t-28 188.5zM301 1008q0 -113 46.5 -175.5t129.5 -62.5 q82 0 129 62.5t47 175.5q0 112 -47 176.5t-129 64.5q-83 0 -129.5 -64.5t-46.5 -176.5z" />
<glyph unicode="&#xbb;" horiz-adv-x="1151" d="M31 0l311 524l-311 523h286l312 -523l-312 -524h-286zM492 0l311 524l-311 523h286l312 -523l-312 -524h-286z" />
<glyph unicode="&#xbc;" horiz-adv-x="1473" d="M20 1214v170q35 0 60 4t42.5 12t29.5 19t20 25h178v-864h-225v634h-105zM28 -25l979 1483h256l-979 -1483h-256zM682 164v147l424 553h205v-512h115v-188h-115v-164h-209v164h-420zM922 352h180v238z" />
<glyph unicode="&#xbd;" horiz-adv-x="1554" d="M20 1214v170q35 0 60 4t42.5 12t29.5 19t20 25h178v-864h-225v634h-105zM28 -25l979 1483h256l-979 -1483h-256zM846 0q0 100 23 179t63.5 140.5t95.5 107.5t119 79q18 10 35.5 20t31 22t21.5 25.5t8 30.5q0 29 -19.5 49.5t-57.5 20.5q-47 0 -74 -26.5t-41 -74.5l-203 50 q17 57 47 104t71.5 80.5t94.5 52.5t115 19q68 0 123.5 -19.5t95 -55t61 -84.5t21.5 -108q0 -60 -18 -103t-48.5 -75t-71.5 -56t-87 -48q-51 -28 -87 -57.5t-53 -63.5h363v-209h-629z" />
<glyph unicode="&#xbe;" horiz-adv-x="1712" d="M25 817l206 53q14 -54 45.5 -79t73.5 -25t65 23.5t23 58.5q0 37 -25 59.5t-85 22.5h-78v188h76q46 0 65 21t19 49q0 29 -19 49t-53 20q-40 0 -61 -19.5t-35 -53.5l-189 69q40 97 119 151t184 54q65 0 116 -20t86.5 -54t54 -78.5t18.5 -93.5q0 -32 -9 -60t-24 -52 t-34.5 -42t-41.5 -30q63 -23 100 -72.5t37 -124.5q0 -58 -20.5 -107t-60.5 -84t-97.5 -55t-132.5 -20q-121 0 -203.5 66.5t-119.5 185.5zM268 -25l979 1483h256l-979 -1483h-256zM921 164v147l424 553h205v-512h115v-188h-115v-164h-209v164h-420zM1161 352h180v238z" />
<glyph unicode="&#xbf;" horiz-adv-x="1034" d="M72 6q0 84 24.5 142.5t61 101.5t79 77t79 71t61 82t24.5 110v72h267v-74q0 -95 -24.5 -160t-61 -112.5t-79.5 -81.5t-79.5 -67.5t-61 -70.5t-24.5 -90q0 -35 11.5 -64t34 -50.5t56 -33.5t76.5 -12q102 0 156.5 63t54.5 179h266q0 -120 -35 -212.5t-98 -156t-151 -96.5 t-193 -33q-108 0 -191 32t-139.5 88.5t-85 132.5t-28.5 163zM358 903q0 35 13.5 66t37 53.5t55 35.5t68.5 13t68.5 -13t55 -35.5t36.5 -53.5t13 -66t-13 -66t-36.5 -54t-55 -36.5t-68.5 -13.5t-68.5 13.5t-55 36.5t-37 54t-13.5 66z" />
<glyph unicode="&#xc0;" horiz-adv-x="1520" d="M76 0l549 1434h270l549 -1434h-297l-111 297h-553l-110 -297h-297zM416 1888h332l291 -319h-258zM573 549h373l-141 373q-11 26 -23.5 62t-21.5 67q-8 -31 -21 -67t-24 -62z" />
<glyph unicode="&#xc1;" horiz-adv-x="1520" d="M76 0l549 1434h270l549 -1434h-297l-111 297h-553l-110 -297h-297zM481 1569l291 319h332l-365 -319h-258zM573 549h373l-141 373q-11 26 -23.5 62t-21.5 67q-8 -31 -21 -67t-24 -62z" />
<glyph unicode="&#xc2;" horiz-adv-x="1520" d="M76 0l549 1434h270l549 -1434h-297l-111 297h-553l-110 -297h-297zM342 1569l290 319h256l289 -319h-246l-172 141l-172 -141h-245zM573 549h373l-141 373q-11 26 -23.5 62t-21.5 67q-8 -31 -21 -67t-24 -62z" />
<glyph unicode="&#xc3;" horiz-adv-x="1520" d="M76 0l549 1434h270l549 -1434h-297l-111 297h-553l-110 -297h-297zM364 1591q0 61 12 113t39.5 90t73 59t111.5 21q54 0 99.5 -14.5t85.5 -32.5t77 -32.5t76 -14.5q38 0 65.5 19.5t30.5 66.5h125q0 -62 -12 -113.5t-40 -89.5t-73 -59t-111 -21q-54 0 -99.5 14.5 t-85.5 32.5t-77 32.5t-76 14.5q-38 0 -65.5 -19.5t-30.5 -66.5h-125zM573 549h373l-141 373q-11 26 -23.5 62t-21.5 67q-8 -31 -21 -67t-24 -62z" />
<glyph unicode="&#xc4;" horiz-adv-x="1520" d="M76 0l549 1434h270l549 -1434h-297l-111 297h-553l-110 -297h-297zM415 1728q0 31 11.5 58.5t32 48t47.5 32t59 11.5q31 0 58.5 -11.5t47.5 -32t31.5 -48t11.5 -58.5q0 -32 -11.5 -59t-31.5 -47t-47.5 -31.5t-58.5 -11.5q-32 0 -59 11.5t-47.5 31.5t-32 47t-11.5 59z M573 549h373l-141 373q-11 26 -23.5 62t-21.5 67q-8 -31 -21 -67t-24 -62zM804 1728q0 31 11.5 58.5t32 48t47.5 32t59 11.5q31 0 58.5 -11.5t47.5 -32t31.5 -48t11.5 -58.5q0 -32 -11.5 -59t-31.5 -47t-47.5 -31.5t-58.5 -11.5q-32 0 -59 11.5t-47.5 31.5t-32 47t-11.5 59z " />
<glyph unicode="&#xc5;" horiz-adv-x="1520" d="M76 0l502 1315q-39 35 -61.5 85t-22.5 107q0 55 21 102.5t57 83t84.5 56t103.5 20.5q54 0 102.5 -20.5t85 -56t57.5 -83t21 -102.5q0 -57 -23 -107t-63 -85l504 -1315h-297l-111 297h-553l-110 -297h-297zM573 549h373l-141 373q-11 26 -23.5 62t-21.5 67q-8 -31 -21 -67 t-24 -62zM680 1507q0 -35 23 -58.5t57 -23.5q32 0 56 23.5t24 58.5t-24 58.5t-56 23.5q-34 0 -57 -23.5t-23 -58.5z" />
<glyph unicode="&#xc6;" horiz-adv-x="1851" d="M-31 0l832 1434h895v-263h-615v-301h326v-262h-326v-346h658v-262h-934v297h-371l-168 -297h-297zM582 549h223v409q-9 -24 -21.5 -49t-27.5 -53z" />
<glyph unicode="&#xc7;" horiz-adv-x="1352" d="M133 717q0 82 14 168.5t43.5 168.5t77 155t114 128t154.5 87t199 32q103 0 187 -28t148 -73.5t108.5 -103.5t68.5 -118l-248 -113q-26 40 -53 72t-58 53.5t-68.5 33t-84.5 11.5q-60 0 -107 -20.5t-82 -55.5t-59 -82t-39 -99.5t-21.5 -108t-6.5 -107.5q0 -84 18 -168 t56 -152t97.5 -110.5t143.5 -42.5q44 0 81 13.5t68.5 37.5t59 58t51.5 75l254 -96q-31 -72 -72.5 -132t-95.5 -105.5t-120.5 -74.5t-147.5 -38l-47 -76q60 0 103.5 -14t72 -39t42 -59t13.5 -73q0 -48 -18.5 -88.5t-54 -70t-87 -46t-118.5 -16.5q-87 0 -140.5 27.5 t-84.5 69.5l114 86q13 -16 34 -27.5t50 -11.5q48 0 73.5 21t25.5 59q0 37 -26.5 58t-74.5 21q-25 0 -46.5 -7t-41.5 -21l-55 67l115 140q-98 9 -175.5 44t-136.5 89t-100 123.5t-67 148t-38 162.5t-12 168z" />
<glyph unicode="&#xc8;" horiz-adv-x="1319" d="M184 0v1434h979v-263h-702v-301h413v-262h-413v-346h745v-262h-1022zM305 1888h332l291 -319h-258z" />
<glyph unicode="&#xc9;" horiz-adv-x="1319" d="M184 0v1434h979v-263h-702v-301h413v-262h-413v-346h745v-262h-1022zM450 1569l291 319h332l-365 -319h-258z" />
<glyph unicode="&#xca;" horiz-adv-x="1319" d="M184 0v1434h979v-263h-702v-301h413v-262h-413v-346h745v-262h-1022zM271 1569l290 319h256l289 -319h-246l-172 141l-172 -141h-245z" />
<glyph unicode="&#xcb;" horiz-adv-x="1319" d="M184 0v1434h979v-263h-702v-301h413v-262h-413v-346h745v-262h-1022zM346 1728q0 31 11.5 58.5t32 48t47.5 32t59 11.5q31 0 58.5 -11.5t47.5 -32t31.5 -48t11.5 -58.5q0 -32 -11.5 -59t-31.5 -47t-47.5 -31.5t-58.5 -11.5q-32 0 -59 11.5t-47.5 31.5t-32 47t-11.5 59z M735 1728q0 31 11.5 58.5t32 48t47.5 32t59 11.5q31 0 58.5 -11.5t47.5 -32t31.5 -48t11.5 -58.5q0 -32 -11.5 -59t-31.5 -47t-47.5 -31.5t-58.5 -11.5q-32 0 -59 11.5t-47.5 31.5t-32 47t-11.5 59z" />
<glyph unicode="&#xcc;" horiz-adv-x="666" d="M-8 1888h332l291 -319h-258zM195 0v1434h276v-1434h-276z" />
<glyph unicode="&#xcd;" horiz-adv-x="666" d="M57 1569l291 319h332l-365 -319h-258zM195 0v1434h276v-1434h-276z" />
<glyph unicode="&#xce;" horiz-adv-x="666" d="M-82 1569l290 319h256l289 -319h-246l-172 141l-172 -141h-245zM195 0v1434h276v-1434h-276z" />
<glyph unicode="&#xcf;" horiz-adv-x="666" d="M-9 1728q0 31 11.5 58.5t32 48t47.5 32t59 11.5q31 0 58.5 -11.5t47.5 -32t31.5 -48t11.5 -58.5q0 -32 -11.5 -59t-31.5 -47t-47.5 -31.5t-58.5 -11.5q-32 0 -59 11.5t-47.5 31.5t-32 47t-11.5 59zM195 0v1434h276v-1434h-276zM380 1728q0 31 11.5 58.5t32 48t47.5 32 t59 11.5q31 0 58.5 -11.5t47.5 -32t31.5 -48t11.5 -58.5q0 -32 -11.5 -59t-31.5 -47t-47.5 -31.5t-58.5 -11.5q-32 0 -59 11.5t-47.5 31.5t-32 47t-11.5 59z" />
<glyph unicode="&#xd0;" horiz-adv-x="1495" d="M57 588v258h127v588h484q125 0 225 -28.5t177.5 -78.5t132.5 -118.5t90.5 -148t52 -167.5t16.5 -176q0 -82 -15.5 -167.5t-49.5 -165t-88.5 -149.5t-133 -122.5t-181.5 -82.5t-235 -30h-475v588h-127zM461 262h231q107 0 180 41.5t118 107t65 146.5t20 160 q0 84 -21 165.5t-64.5 145.5t-112 103.5t-162.5 39.5h-254v-325h293v-258h-293v-326z" />
<glyph unicode="&#xd1;" horiz-adv-x="1511" d="M184 0v1434h260l555 -826q13 -20 30 -50t30 -58q-3 29 -4.5 58.5t-1.5 49.5v826h274v-1434h-246l-569 836q-14 21 -30.5 51.5t-28.5 56.5q3 -23 4.5 -54t1.5 -54v-836h-275zM377 1591q0 61 12 113t39.5 90t73 59t111.5 21q54 0 99.5 -14.5t85.5 -32.5t77 -32.5t76 -14.5 q38 0 65.5 19.5t30.5 66.5h125q0 -62 -12 -113.5t-40 -89.5t-73 -59t-111 -21q-54 0 -99.5 14.5t-85.5 32.5t-77 32.5t-76 14.5q-38 0 -65.5 -19.5t-30.5 -66.5h-125z" />
<glyph unicode="&#xd2;" horiz-adv-x="1530" d="M133 717q0 88 14.5 177.5t46 172t81.5 154t120.5 124t162.5 83t208 30.5t207.5 -30.5t161.5 -83t120 -124t81.5 -154t46 -172t14.5 -177.5q0 -89 -14.5 -178.5t-46 -172t-81.5 -154t-120 -124t-161.5 -83t-207.5 -30.5t-208 30.5t-162.5 83t-120.5 124t-81.5 154t-46 172 t-14.5 178.5zM381 1888h332l291 -319h-258zM420 717q0 -82 18 -166.5t58.5 -153t106.5 -112t163 -43.5q96 0 161.5 45t106 115t58.5 153.5t18 161.5q0 55 -7.5 111.5t-24.5 109t-44 99t-65 81t-88.5 54.5t-114.5 20q-65 0 -115.5 -21t-89 -56.5t-65.5 -82.5t-44 -100 t-24.5 -108t-7.5 -107z" />
<glyph unicode="&#xd3;" horiz-adv-x="1530" d="M133 717q0 88 14.5 177.5t46 172t81.5 154t120.5 124t162.5 83t208 30.5t207.5 -30.5t161.5 -83t120 -124t81.5 -154t46 -172t14.5 -177.5q0 -89 -14.5 -178.5t-46 -172t-81.5 -154t-120 -124t-161.5 -83t-207.5 -30.5t-208 30.5t-162.5 83t-120.5 124t-81.5 154t-46 172 t-14.5 178.5zM420 717q0 -82 18 -166.5t58.5 -153t106.5 -112t163 -43.5q96 0 161.5 45t106 115t58.5 153.5t18 161.5q0 55 -7.5 111.5t-24.5 109t-44 99t-65 81t-88.5 54.5t-114.5 20q-65 0 -115.5 -21t-89 -56.5t-65.5 -82.5t-44 -100t-24.5 -108t-7.5 -107zM528 1569 l291 319h332l-365 -319h-258z" />
<glyph unicode="&#xd4;" horiz-adv-x="1530" d="M133 717q0 88 14.5 177.5t46 172t81.5 154t120.5 124t162.5 83t208 30.5t207.5 -30.5t161.5 -83t120 -124t81.5 -154t46 -172t14.5 -177.5q0 -89 -14.5 -178.5t-46 -172t-81.5 -154t-120 -124t-161.5 -83t-207.5 -30.5t-208 30.5t-162.5 83t-120.5 124t-81.5 154t-46 172 t-14.5 178.5zM349 1569l290 319h256l289 -319h-246l-172 141l-172 -141h-245zM420 717q0 -82 18 -166.5t58.5 -153t106.5 -112t163 -43.5q96 0 161.5 45t106 115t58.5 153.5t18 161.5q0 55 -7.5 111.5t-24.5 109t-44 99t-65 81t-88.5 54.5t-114.5 20q-65 0 -115.5 -21 t-89 -56.5t-65.5 -82.5t-44 -100t-24.5 -108t-7.5 -107z" />
<glyph unicode="&#xd5;" horiz-adv-x="1530" d="M133 717q0 88 14.5 177.5t46 172t81.5 154t120.5 124t162.5 83t208 30.5t207.5 -30.5t161.5 -83t120 -124t81.5 -154t46 -172t14.5 -177.5q0 -89 -14.5 -178.5t-46 -172t-81.5 -154t-120 -124t-161.5 -83t-207.5 -30.5t-208 30.5t-162.5 83t-120.5 124t-81.5 154t-46 172 t-14.5 178.5zM367 1591q0 61 12 113t39.5 90t73 59t111.5 21q54 0 99.5 -14.5t85.5 -32.5t77 -32.5t76 -14.5q38 0 65.5 19.5t30.5 66.5h125q0 -62 -12 -113.5t-40 -89.5t-73 -59t-111 -21q-54 0 -99.5 14.5t-85.5 32.5t-77 32.5t-76 14.5q-38 0 -65.5 -19.5t-30.5 -66.5 h-125zM420 717q0 -82 18 -166.5t58.5 -153t106.5 -112t163 -43.5q96 0 161.5 45t106 115t58.5 153.5t18 161.5q0 55 -7.5 111.5t-24.5 109t-44 99t-65 81t-88.5 54.5t-114.5 20q-65 0 -115.5 -21t-89 -56.5t-65.5 -82.5t-44 -100t-24.5 -108t-7.5 -107z" />
<glyph unicode="&#xd6;" horiz-adv-x="1530" d="M133 717q0 88 14.5 177.5t46 172t81.5 154t120.5 124t162.5 83t208 30.5t207.5 -30.5t161.5 -83t120 -124t81.5 -154t46 -172t14.5 -177.5q0 -89 -14.5 -178.5t-46 -172t-81.5 -154t-120 -124t-161.5 -83t-207.5 -30.5t-208 30.5t-162.5 83t-120.5 124t-81.5 154t-46 172 t-14.5 178.5zM420 717q0 -82 18 -166.5t58.5 -153t106.5 -112t163 -43.5q96 0 161.5 45t106 115t58.5 153.5t18 161.5q0 55 -7.5 111.5t-24.5 109t-44 99t-65 81t-88.5 54.5t-114.5 20q-65 0 -115.5 -21t-89 -56.5t-65.5 -82.5t-44 -100t-24.5 -108t-7.5 -107zM422 1728 q0 31 11.5 58.5t32 48t47.5 32t59 11.5q31 0 58.5 -11.5t47.5 -32t31.5 -48t11.5 -58.5q0 -32 -11.5 -59t-31.5 -47t-47.5 -31.5t-58.5 -11.5q-32 0 -59 11.5t-47.5 31.5t-32 47t-11.5 59zM811 1728q0 31 11.5 58.5t32 48t47.5 32t59 11.5q31 0 58.5 -11.5t47.5 -32 t31.5 -48t11.5 -58.5q0 -32 -11.5 -59t-31.5 -47t-47.5 -31.5t-58.5 -11.5q-32 0 -59 11.5t-47.5 31.5t-32 47t-11.5 59z" />
<glyph unicode="&#xd7;" d="M152 403l303 302l-301 303l186 186l303 -301l301 303l195 -192l-305 -304l303 -301l-189 -188l-301 303l-303 -305z" />
<glyph unicode="&#xd8;" horiz-adv-x="1530" d="M133 -25l152 226q-40 53 -69 114.5t-47.5 128t-27 136t-8.5 137.5q0 88 14.5 177.5t46 172t81.5 154t120.5 124t162.5 83t208 30.5q94 0 172 -20t143 -58l54 78h262l-152 -225q40 -53 69 -114.5t47.5 -128t27 -136t8.5 -137.5q0 -89 -14.5 -178.5t-46 -172t-81.5 -154 t-120 -124t-161.5 -83t-207.5 -30.5q-96 0 -175 20.5t-142 57.5l-54 -78h-262zM420 717q0 -63 10 -128t33 -124l463 684q-34 20 -73 31.5t-87 11.5q-65 0 -115.5 -21t-89 -56.5t-65.5 -82.5t-44 -100t-24.5 -108t-7.5 -107zM604 285q32 -20 72 -31.5t90 -11.5q96 0 161.5 45 t106 115t58.5 153.5t18 161.5q0 63 -10 128t-33 124z" />
<glyph unicode="&#xd9;" horiz-adv-x="1503" d="M174 549v885h277v-885q0 -89 20.5 -148.5t59.5 -94.5t95 -49.5t126 -14.5q69 0 124.5 14.5t95 49.5t60.5 94.5t21 148.5v885h276v-885q0 -160 -48 -269.5t-128.5 -177t-184.5 -97.5t-216 -30q-73 0 -144.5 12.5t-135.5 40.5t-118.5 72.5t-94.5 108.5t-62.5 148t-22.5 192 zM405 1888h332l291 -319h-258z" />
<glyph unicode="&#xda;" horiz-adv-x="1503" d="M174 549v885h277v-885q0 -89 20.5 -148.5t59.5 -94.5t95 -49.5t126 -14.5q69 0 124.5 14.5t95 49.5t60.5 94.5t21 148.5v885h276v-885q0 -160 -48 -269.5t-128.5 -177t-184.5 -97.5t-216 -30q-73 0 -144.5 12.5t-135.5 40.5t-118.5 72.5t-94.5 108.5t-62.5 148t-22.5 192 zM512 1569l291 319h332l-365 -319h-258z" />
<glyph unicode="&#xdb;" horiz-adv-x="1503" d="M174 549v885h277v-885q0 -89 20.5 -148.5t59.5 -94.5t95 -49.5t126 -14.5q69 0 124.5 14.5t95 49.5t60.5 94.5t21 148.5v885h276v-885q0 -160 -48 -269.5t-128.5 -177t-184.5 -97.5t-216 -30q-73 0 -144.5 12.5t-135.5 40.5t-118.5 72.5t-94.5 108.5t-62.5 148t-22.5 192 zM332 1569l290 319h256l289 -319h-246l-172 141l-172 -141h-245z" />
<glyph unicode="&#xdc;" horiz-adv-x="1503" d="M174 549v885h277v-885q0 -89 20.5 -148.5t59.5 -94.5t95 -49.5t126 -14.5q69 0 124.5 14.5t95 49.5t60.5 94.5t21 148.5v885h276v-885q0 -160 -48 -269.5t-128.5 -177t-184.5 -97.5t-216 -30q-73 0 -144.5 12.5t-135.5 40.5t-118.5 72.5t-94.5 108.5t-62.5 148t-22.5 192 zM405 1728q0 31 11.5 58.5t32 48t47.5 32t59 11.5q31 0 58.5 -11.5t47.5 -32t31.5 -48t11.5 -58.5q0 -32 -11.5 -59t-31.5 -47t-47.5 -31.5t-58.5 -11.5q-32 0 -59 11.5t-47.5 31.5t-32 47t-11.5 59zM794 1728q0 31 11.5 58.5t32 48t47.5 32t59 11.5q31 0 58.5 -11.5 t47.5 -32t31.5 -48t11.5 -58.5q0 -32 -11.5 -59t-31.5 -47t-47.5 -31.5t-58.5 -11.5q-32 0 -59 11.5t-47.5 31.5t-32 47t-11.5 59z" />
<glyph unicode="&#xdd;" horiz-adv-x="1458" d="M61 1434h314l354 -586l354 586h314l-531 -875v-559h-274v559zM493 1569l291 319h332l-365 -319h-258z" />
<glyph unicode="&#xde;" horiz-adv-x="1370" d="M184 0v1434h277v-252h340q136 0 229 -39.5t150.5 -104t82.5 -145.5t25 -164q0 -78 -27 -159t-85.5 -146t-151 -106.5t-223.5 -41.5h-340v-276h-277zM461 539h350q53 0 89 17t58.5 44t32.5 61t10 68q0 31 -8.5 64.5t-30 61.5t-58.5 46.5t-93 18.5h-350v-381z" />
<glyph unicode="&#xdf;" horiz-adv-x="1178" d="M133 -410v1371q0 135 38 229.5t102 154t146 86.5t171 27q97 0 176.5 -27t136.5 -76t88 -119t31 -155q0 -48 -11.5 -92.5t-34.5 -82t-59.5 -68t-85.5 -50.5q61 -17 110.5 -49.5t83.5 -78.5t52.5 -103t18.5 -123q0 -113 -33.5 -199t-91 -143.5t-135.5 -87t-168 -29.5 q-72 0 -126.5 13t-92.5 35l118 194q25 -8 43 -10t41 -2q34 0 66 15t57 44t40 70.5t15 95.5q0 43 -13.5 85t-42.5 75t-74 53.5t-107 20.5h-76v229h76q35 0 65 13t52 36t34.5 54.5t12.5 68.5q0 34 -11 63.5t-32 52t-51.5 35.5t-69.5 13q-45 0 -81 -14.5t-61 -46t-38 -81.5 t-13 -122v-1250z" />
<glyph unicode="&#xe0;" horiz-adv-x="1143" d="M92 322q0 90 36 155.5t94.5 108t133 62.5t152.5 20q75 0 133.5 -13.5t106.5 -36.5v54q0 86 -49 126t-140 40q-93 0 -171 -27t-152 -78l-82 215q37 25 83.5 47.5t100.5 39.5t115.5 26.5t128.5 9.5q47 0 97 -5t97.5 -20t90 -43t74.5 -72.5t50.5 -109t18.5 -153.5v-668h-262 v76q-18 -19 -43.5 -37t-59.5 -32.5t-75.5 -23t-92.5 -8.5q-81 0 -151 22t-122 66t-82 108.5t-30 150.5zM240 1499h332l291 -319h-258zM352 322q0 -51 45 -82t131 -31q73 0 127 25.5t93 60.5v113q-41 15 -91.5 24.5t-103.5 9.5q-41 0 -77.5 -6.5t-64 -21t-43.5 -37.5t-16 -55 z" />
<glyph unicode="&#xe1;" horiz-adv-x="1143" d="M92 322q0 90 36 155.5t94.5 108t133 62.5t152.5 20q75 0 133.5 -13.5t106.5 -36.5v54q0 86 -49 126t-140 40q-93 0 -171 -27t-152 -78l-82 215q37 25 83.5 47.5t100.5 39.5t115.5 26.5t128.5 9.5q47 0 97 -5t97.5 -20t90 -43t74.5 -72.5t50.5 -109t18.5 -153.5v-668h-262 v76q-18 -19 -43.5 -37t-59.5 -32.5t-75.5 -23t-92.5 -8.5q-81 0 -151 22t-122 66t-82 108.5t-30 150.5zM305 1180l291 319h332l-365 -319h-258zM352 322q0 -51 45 -82t131 -31q73 0 127 25.5t93 60.5v113q-41 15 -91.5 24.5t-103.5 9.5q-41 0 -77.5 -6.5t-64 -21 t-43.5 -37.5t-16 -55z" />
<glyph unicode="&#xe2;" horiz-adv-x="1143" d="M92 322q0 90 36 155.5t94.5 108t133 62.5t152.5 20q75 0 133.5 -13.5t106.5 -36.5v54q0 86 -49 126t-140 40q-93 0 -171 -27t-152 -78l-82 215q37 25 83.5 47.5t100.5 39.5t115.5 26.5t128.5 9.5q47 0 97 -5t97.5 -20t90 -43t74.5 -72.5t50.5 -109t18.5 -153.5v-668h-262 v76q-18 -19 -43.5 -37t-59.5 -32.5t-75.5 -23t-92.5 -8.5q-81 0 -151 22t-122 66t-82 108.5t-30 150.5zM166 1180l290 319h256l289 -319h-246l-172 141l-172 -141h-245zM352 322q0 -51 45 -82t131 -31q73 0 127 25.5t93 60.5v113q-41 15 -91.5 24.5t-103.5 9.5 q-41 0 -77.5 -6.5t-64 -21t-43.5 -37.5t-16 -55z" />
<glyph unicode="&#xe3;" horiz-adv-x="1143" d="M92 322q0 90 36 155.5t94.5 108t133 62.5t152.5 20q75 0 133.5 -13.5t106.5 -36.5v54q0 86 -49 126t-140 40q-93 0 -171 -27t-152 -78l-82 215q37 25 83.5 47.5t100.5 39.5t115.5 26.5t128.5 9.5q47 0 97 -5t97.5 -20t90 -43t74.5 -72.5t50.5 -109t18.5 -153.5v-668h-262 v76q-18 -19 -43.5 -37t-59.5 -32.5t-75.5 -23t-92.5 -8.5q-81 0 -151 22t-122 66t-82 108.5t-30 150.5zM186 1202q0 61 12 113t39.5 90t73 59t111.5 21q54 0 99.5 -14.5t85.5 -32.5t77 -32.5t76 -14.5q38 0 65.5 19.5t30.5 66.5h125q0 -62 -12 -113.5t-40 -89.5t-73 -59 t-111 -21q-54 0 -99.5 14.5t-85.5 32.5t-77 32.5t-76 14.5q-38 0 -65.5 -19.5t-30.5 -66.5h-125zM352 322q0 -51 45 -82t131 -31q73 0 127 25.5t93 60.5v113q-41 15 -91.5 24.5t-103.5 9.5q-41 0 -77.5 -6.5t-64 -21t-43.5 -37.5t-16 -55z" />
<glyph unicode="&#xe4;" horiz-adv-x="1143" d="M92 322q0 90 36 155.5t94.5 108t133 62.5t152.5 20q75 0 133.5 -13.5t106.5 -36.5v54q0 86 -49 126t-140 40q-93 0 -171 -27t-152 -78l-82 215q37 25 83.5 47.5t100.5 39.5t115.5 26.5t128.5 9.5q47 0 97 -5t97.5 -20t90 -43t74.5 -72.5t50.5 -109t18.5 -153.5v-668h-262 v76q-18 -19 -43.5 -37t-59.5 -32.5t-75.5 -23t-92.5 -8.5q-81 0 -151 22t-122 66t-82 108.5t-30 150.5zM239 1339q0 31 11.5 58.5t32 48t47.5 32t59 11.5q31 0 58.5 -11.5t47.5 -32t31.5 -48t11.5 -58.5q0 -32 -11.5 -59t-31.5 -47t-47.5 -31.5t-58.5 -11.5q-32 0 -59 11.5 t-47.5 31.5t-32 47t-11.5 59zM352 322q0 -51 45 -82t131 -31q73 0 127 25.5t93 60.5v113q-41 15 -91.5 24.5t-103.5 9.5q-41 0 -77.5 -6.5t-64 -21t-43.5 -37.5t-16 -55zM628 1339q0 31 11.5 58.5t32 48t47.5 32t59 11.5q31 0 58.5 -11.5t47.5 -32t31.5 -48t11.5 -58.5 q0 -32 -11.5 -59t-31.5 -47t-47.5 -31.5t-58.5 -11.5q-32 0 -59 11.5t-47.5 31.5t-32 47t-11.5 59z" />
<glyph unicode="&#xe5;" horiz-adv-x="1143" d="M92 322q0 90 36 155.5t94.5 108t133 62.5t152.5 20q75 0 133.5 -13.5t106.5 -36.5v54q0 86 -49 126t-140 40q-93 0 -171 -27t-152 -78l-82 215q37 25 83.5 47.5t100.5 39.5t115.5 26.5t128.5 9.5q47 0 97 -5t97.5 -20t90 -43t74.5 -72.5t50.5 -109t18.5 -153.5v-668h-262 v76q-18 -19 -43.5 -37t-59.5 -32.5t-75.5 -23t-92.5 -8.5q-81 0 -151 22t-122 66t-82 108.5t-30 150.5zM317 1411q0 55 21 103t57.5 83.5t85 56t102.5 20.5q55 0 103.5 -20.5t85 -56t57.5 -83.5t21 -103q0 -54 -21 -102t-57.5 -84t-85 -57t-103.5 -21q-54 0 -102.5 21 t-85 57t-57.5 84t-21 102zM352 322q0 -51 45 -82t131 -31q73 0 127 25.5t93 60.5v113q-41 15 -91.5 24.5t-103.5 9.5q-41 0 -77.5 -6.5t-64 -21t-43.5 -37.5t-16 -55zM504 1411q0 -35 22.5 -58.5t56.5 -23.5q32 0 56 23.5t24 58.5t-24 58.5t-56 23.5q-34 0 -56.5 -23.5 t-22.5 -58.5z" />
<glyph unicode="&#xe6;" horiz-adv-x="1753" d="M92 322q0 92 34 158t88.5 109t124.5 63t142 20q71 0 126 -13t100 -36v49q0 86 -45 126t-130 40t-156.5 -27t-139.5 -78l-82 215q36 25 80 47.5t95.5 39.5t109.5 26.5t122 9.5q41 0 84.5 -4.5t85.5 -17t79.5 -35t66.5 -58.5q55 56 137.5 85.5t181.5 29.5q97 0 182 -30 t148 -91t99 -153.5t36 -218.5q0 -31 -3 -72t-11 -86h-678q4 -51 24 -90t50.5 -66t69.5 -41t83 -14q72 0 126 25.5t99 82.5l164 -165q-66 -81 -162 -129t-227 -48q-121 0 -215 43.5t-156 124.5q-83 -92 -179 -130t-193 -38q-75 0 -141 22t-115 66t-77 108.5t-28 150.5z M352 322q0 -51 40.5 -82t117.5 -31q65 0 114 25.5t83 60.5v113q-36 15 -82 24.5t-93 9.5q-37 0 -69.5 -6.5t-57 -21t-39 -37.5t-14.5 -55zM971 645h428q-13 93 -67.5 143t-135.5 50q-94 0 -153.5 -47t-71.5 -146z" />
<glyph unicode="&#xe7;" horiz-adv-x="1120" d="M102 522q0 128 34 230t96 173t150.5 108.5t197.5 37.5q160 0 272.5 -73.5t163.5 -233.5l-254 -84q-23 60 -68 97.5t-108 37.5q-49 0 -88.5 -21t-67 -59t-42.5 -92t-15 -121t15 -120.5t42 -91.5t65 -58.5t85 -20.5q68 0 115 39t69 113l254 -76q-43 -152 -140 -234 t-243 -96l-45 -71q60 0 103.5 -14t72 -39t42 -59t13.5 -73q0 -48 -18.5 -88.5t-54 -70t-87 -46t-118.5 -16.5q-87 0 -141 27.5t-85 69.5l115 86q13 -16 34 -27.5t50 -11.5q48 0 73 21t25 59q0 37 -26 58t-74 21q-25 0 -46.5 -7t-41.5 -21l-55 67l116 142q-89 13 -160 56 t-121 112t-77 162.5t-27 207.5z" />
<glyph unicode="&#xe8;" horiz-adv-x="1147" d="M102 524q0 128 34 229.5t98 172t154.5 108t203.5 37.5q97 0 182 -30t147 -91t98 -153.5t36 -218.5q0 -31 -1 -73.5t-7 -84.5h-682q4 -51 24 -90t50.5 -66t69.5 -41t83 -14q72 0 126 25.5t99 82.5l164 -165q-66 -81 -162 -129t-227 -48q-114 0 -204.5 37.5t-154 108.5 t-97.5 173t-34 230zM248 1499h332l291 -319h-258zM367 645h428q-13 93 -68 143t-135 50q-94 0 -153.5 -47t-71.5 -146z" />
<glyph unicode="&#xe9;" horiz-adv-x="1147" d="M102 524q0 128 34 229.5t98 172t154.5 108t203.5 37.5q97 0 182 -30t147 -91t98 -153.5t36 -218.5q0 -31 -1 -73.5t-7 -84.5h-682q4 -51 24 -90t50.5 -66t69.5 -41t83 -14q72 0 126 25.5t99 82.5l164 -165q-66 -81 -162 -129t-227 -48q-114 0 -204.5 37.5t-154 108.5 t-97.5 173t-34 230zM315 1180l291 319h332l-365 -319h-258zM367 645h428q-13 93 -68 143t-135 50q-94 0 -153.5 -47t-71.5 -146z" />
<glyph unicode="&#xea;" horiz-adv-x="1147" d="M102 524q0 128 34 229.5t98 172t154.5 108t203.5 37.5q97 0 182 -30t147 -91t98 -153.5t36 -218.5q0 -31 -1 -73.5t-7 -84.5h-682q4 -51 24 -90t50.5 -66t69.5 -41t83 -14q72 0 126 25.5t99 82.5l164 -165q-66 -81 -162 -129t-227 -48q-114 0 -204.5 37.5t-154 108.5 t-97.5 173t-34 230zM177 1180l290 319h256l289 -319h-246l-172 141l-172 -141h-245zM367 645h428q-13 93 -68 143t-135 50q-94 0 -153.5 -47t-71.5 -146z" />
<glyph unicode="&#xeb;" horiz-adv-x="1147" d="M102 524q0 128 34 229.5t98 172t154.5 108t203.5 37.5q97 0 182 -30t147 -91t98 -153.5t36 -218.5q0 -31 -1 -73.5t-7 -84.5h-682q4 -51 24 -90t50.5 -66t69.5 -41t83 -14q72 0 126 25.5t99 82.5l164 -165q-66 -81 -162 -129t-227 -48q-114 0 -204.5 37.5t-154 108.5 t-97.5 173t-34 230zM250 1339q0 31 11.5 58.5t32 48t47.5 32t59 11.5q31 0 58.5 -11.5t47.5 -32t31.5 -48t11.5 -58.5q0 -32 -11.5 -59t-31.5 -47t-47.5 -31.5t-58.5 -11.5q-32 0 -59 11.5t-47.5 31.5t-32 47t-11.5 59zM367 645h428q-13 93 -68 143t-135 50 q-94 0 -153.5 -47t-71.5 -146zM639 1339q0 31 11.5 58.5t32 48t47.5 32t59 11.5q31 0 58.5 -11.5t47.5 -32t31.5 -48t11.5 -58.5q0 -32 -11.5 -59t-31.5 -47t-47.5 -31.5t-58.5 -11.5q-32 0 -59 11.5t-47.5 31.5t-32 47t-11.5 59z" />
<glyph unicode="&#xec;" horiz-adv-x="578" d="M-90 1499h332l291 -319h-258zM156 0v1047h266v-1047h-266z" />
<glyph unicode="&#xed;" horiz-adv-x="578" d="M55 1180l291 319h332l-365 -319h-258zM156 0v1047h266v-1047h-266z" />
<glyph unicode="&#xee;" horiz-adv-x="578" d="M-125 1180l290 319h256l289 -319h-246l-172 141l-172 -141h-245zM156 0v1047h266v-1047h-266z" />
<glyph unicode="&#xef;" horiz-adv-x="578" d="M-52 1339q0 31 11.5 58.5t32 48t47.5 32t59 11.5q31 0 58.5 -11.5t47.5 -32t31.5 -48t11.5 -58.5q0 -32 -11.5 -59t-31.5 -47t-47.5 -31.5t-58.5 -11.5q-32 0 -59 11.5t-47.5 31.5t-32 47t-11.5 59zM156 0v1047h266v-1047h-266zM337 1339q0 31 11.5 58.5t32 48t47.5 32 t59 11.5q31 0 58.5 -11.5t47.5 -32t31.5 -48t11.5 -58.5q0 -32 -11.5 -59t-31.5 -47t-47.5 -31.5t-58.5 -11.5q-32 0 -59 11.5t-47.5 31.5t-32 47t-11.5 59z" />
<glyph unicode="&#xf0;" horiz-adv-x="1167" d="M102 453q0 97 33.5 184.5t94 153.5t145.5 104.5t188 38.5q57 0 107 -16.5t88 -45.5q-7 30 -20 61.5t-30.5 61t-38 55.5t-42.5 46l-119 -123l-148 137l82 84q-40 12 -85 19.5t-93 7.5v237q110 0 199.5 -19.5t161.5 -52.5l116 121l146 -139l-90 -94q70 -61 120.5 -141.5 t83.5 -174.5t48.5 -198t15.5 -211q0 -119 -29 -223.5t-88.5 -182.5t-150 -123t-213.5 -45q-104 0 -192 36t-152.5 100t-101 151.5t-36.5 190.5zM369 453q0 -48 17 -88.5t46 -70t68 -46.5t84 -17t84.5 17t68.5 46.5t45.5 69.5t16.5 87q0 51 -16.5 92.5t-45.5 71.5t-68.5 46.5 t-86.5 16.5q-46 0 -85 -16t-67.5 -45t-44.5 -71t-16 -93z" />
<glyph unicode="&#xf1;" horiz-adv-x="1210" d="M154 0v1047h266v-99q48 59 118.5 91t161.5 32q67 0 133 -20t118 -68t84 -127t32 -197v-659h-266v614q0 53 -14 91t-39 62.5t-58 36t-72 11.5q-41 0 -77 -10.5t-63 -34t-42.5 -61t-15.5 -91.5v-618h-266zM209 1202q0 61 12 113t39.5 90t73 59t111.5 21q54 0 99.5 -14.5 t85.5 -32.5t77 -32.5t76 -14.5q38 0 65.5 19.5t30.5 66.5h125q0 -62 -12 -113.5t-40 -89.5t-73 -59t-111 -21q-54 0 -99.5 14.5t-85.5 32.5t-77 32.5t-76 14.5q-38 0 -65.5 -19.5t-30.5 -66.5h-125z" />
<glyph unicode="&#xf2;" horiz-adv-x="1167" d="M102 522q0 128 34 230t96.5 173t151.5 108.5t200 37.5t200 -37.5t151.5 -108.5t96 -173t33.5 -230t-33.5 -229.5t-96 -172t-151.5 -108t-200 -37.5t-200 37.5t-151.5 108t-96.5 172t-34 229.5zM237 1499h332l291 -319h-258zM369 522q0 -68 15 -122t42.5 -91.5t67.5 -57.5 t90 -20t90 20t67.5 57.5t42.5 91.5t15 122q0 69 -15 123t-42.5 92t-67.5 58t-90 20t-90 -20t-67.5 -58t-42.5 -92t-15 -123z" />
<glyph unicode="&#xf3;" horiz-adv-x="1167" d="M102 522q0 128 34 230t96.5 173t151.5 108.5t200 37.5t200 -37.5t151.5 -108.5t96 -173t33.5 -230t-33.5 -229.5t-96 -172t-151.5 -108t-200 -37.5t-200 37.5t-151.5 108t-96.5 172t-34 229.5zM303 1180l291 319h332l-365 -319h-258zM369 522q0 -68 15 -122t42.5 -91.5 t67.5 -57.5t90 -20t90 20t67.5 57.5t42.5 91.5t15 122q0 69 -15 123t-42.5 92t-67.5 58t-90 20t-90 -20t-67.5 -58t-42.5 -92t-15 -123z" />
<glyph unicode="&#xf4;" horiz-adv-x="1167" d="M102 522q0 128 34 230t96.5 173t151.5 108.5t200 37.5t200 -37.5t151.5 -108.5t96 -173t33.5 -230t-33.5 -229.5t-96 -172t-151.5 -108t-200 -37.5t-200 37.5t-151.5 108t-96.5 172t-34 229.5zM164 1180l290 319h256l289 -319h-246l-172 141l-172 -141h-245zM369 522 q0 -68 15 -122t42.5 -91.5t67.5 -57.5t90 -20t90 20t67.5 57.5t42.5 91.5t15 122q0 69 -15 123t-42.5 92t-67.5 58t-90 20t-90 -20t-67.5 -58t-42.5 -92t-15 -123z" />
<glyph unicode="&#xf5;" horiz-adv-x="1167" d="M102 522q0 128 34 230t96.5 173t151.5 108.5t200 37.5t200 -37.5t151.5 -108.5t96 -173t33.5 -230t-33.5 -229.5t-96 -172t-151.5 -108t-200 -37.5t-200 37.5t-151.5 108t-96.5 172t-34 229.5zM184 1202q0 61 12 113t39.5 90t73 59t111.5 21q54 0 99.5 -14.5t85.5 -32.5 t77 -32.5t76 -14.5q38 0 65.5 19.5t30.5 66.5h125q0 -62 -12 -113.5t-40 -89.5t-73 -59t-111 -21q-54 0 -99.5 14.5t-85.5 32.5t-77 32.5t-76 14.5q-38 0 -65.5 -19.5t-30.5 -66.5h-125zM369 522q0 -68 15 -122t42.5 -91.5t67.5 -57.5t90 -20t90 20t67.5 57.5t42.5 91.5 t15 122q0 69 -15 123t-42.5 92t-67.5 58t-90 20t-90 -20t-67.5 -58t-42.5 -92t-15 -123z" />
<glyph unicode="&#xf6;" horiz-adv-x="1167" d="M102 522q0 128 34 230t96.5 173t151.5 108.5t200 37.5t200 -37.5t151.5 -108.5t96 -173t33.5 -230t-33.5 -229.5t-96 -172t-151.5 -108t-200 -37.5t-200 37.5t-151.5 108t-96.5 172t-34 229.5zM237 1339q0 31 11.5 58.5t32 48t47.5 32t59 11.5q31 0 58.5 -11.5t47.5 -32 t31.5 -48t11.5 -58.5q0 -32 -11.5 -59t-31.5 -47t-47.5 -31.5t-58.5 -11.5q-32 0 -59 11.5t-47.5 31.5t-32 47t-11.5 59zM369 522q0 -68 15 -122t42.5 -91.5t67.5 -57.5t90 -20t90 20t67.5 57.5t42.5 91.5t15 122q0 69 -15 123t-42.5 92t-67.5 58t-90 20t-90 -20t-67.5 -58 t-42.5 -92t-15 -123zM626 1339q0 31 11.5 58.5t32 48t47.5 32t59 11.5q31 0 58.5 -11.5t47.5 -32t31.5 -48t11.5 -58.5q0 -32 -11.5 -59t-31.5 -47t-47.5 -31.5t-58.5 -11.5q-32 0 -59 11.5t-47.5 31.5t-32 47t-11.5 59z" />
<glyph unicode="&#xf7;" d="M164 573v258h962v-258h-962zM485 336q0 32 12.5 60.5t34 49.5t50.5 33.5t63 12.5t63 -12.5t50.5 -33.5t34 -49.5t12.5 -60.5t-12.5 -60.5t-34 -49.5t-50.5 -33.5t-63 -12.5t-63 12.5t-50.5 33.5t-34 49.5t-12.5 60.5zM485 1069q0 32 12.5 60.5t34 49.5t50.5 33.5t63 12.5 t63 -12.5t50.5 -33.5t34 -49.5t12.5 -60.5t-12.5 -60.5t-34 -49.5t-50.5 -33.5t-63 -12.5t-63 12.5t-50.5 33.5t-34 49.5t-12.5 60.5z" />
<glyph unicode="&#xf8;" horiz-adv-x="1169" d="M102 -25l111 168q-54 70 -82.5 165.5t-28.5 213.5q0 128 34 230t96.5 173t151.5 108.5t200 37.5q60 0 114 -11.5t101 -33.5l28 45h240l-113 -170q54 -71 82.5 -165.5t28.5 -213.5q0 -128 -33.5 -229.5t-96 -172t-151.5 -108t-200 -37.5q-60 0 -113.5 11.5t-99.5 31.5 l-29 -43h-240zM369 522q0 -34 4 -65.5t10 -57.5l268 406q-12 5 -31 7.5t-36 2.5q-50 0 -90 -20t-67.5 -58t-42.5 -92t-15 -123zM518 242q16 -7 31.5 -9t34.5 -2q50 0 90 20t67.5 57.5t42.5 91.5t15 122q0 34 -4 67.5t-11 55.5z" />
<glyph unicode="&#xf9;" horiz-adv-x="1210" d="M143 387v660h267v-615q0 -53 14 -91t38.5 -62.5t57.5 -36t72 -11.5q41 0 77.5 10.5t63.5 34t42.5 61t15.5 91.5v619h266v-1047h-266v98q-48 -59 -119 -91t-162 -32q-67 0 -132.5 20.5t-117.5 68.5t-84.5 127t-32.5 196zM250 1499h332l291 -319h-258z" />
<glyph unicode="&#xfa;" horiz-adv-x="1210" d="M143 387v660h267v-615q0 -53 14 -91t38.5 -62.5t57.5 -36t72 -11.5q41 0 77.5 10.5t63.5 34t42.5 61t15.5 91.5v619h266v-1047h-266v98q-48 -59 -119 -91t-162 -32q-67 0 -132.5 20.5t-117.5 68.5t-84.5 127t-32.5 196zM315 1180l291 319h332l-365 -319h-258z" />
<glyph unicode="&#xfb;" horiz-adv-x="1210" d="M143 387v660h267v-615q0 -53 14 -91t38.5 -62.5t57.5 -36t72 -11.5q41 0 77.5 10.5t63.5 34t42.5 61t15.5 91.5v619h266v-1047h-266v98q-48 -59 -119 -91t-162 -32q-67 0 -132.5 20.5t-117.5 68.5t-84.5 127t-32.5 196zM177 1180l290 319h256l289 -319h-246l-172 141 l-172 -141h-245z" />
<glyph unicode="&#xfc;" horiz-adv-x="1210" d="M143 387v660h267v-615q0 -53 14 -91t38.5 -62.5t57.5 -36t72 -11.5q41 0 77.5 10.5t63.5 34t42.5 61t15.5 91.5v619h266v-1047h-266v98q-48 -59 -119 -91t-162 -32q-67 0 -132.5 20.5t-117.5 68.5t-84.5 127t-32.5 196zM250 1339q0 31 11.5 58.5t32 48t47.5 32t59 11.5 q31 0 58.5 -11.5t47.5 -32t31.5 -48t11.5 -58.5q0 -32 -11.5 -59t-31.5 -47t-47.5 -31.5t-58.5 -11.5q-32 0 -59 11.5t-47.5 31.5t-32 47t-11.5 59zM639 1339q0 31 11.5 58.5t32 48t47.5 32t59 11.5q31 0 58.5 -11.5t47.5 -32t31.5 -48t11.5 -58.5q0 -32 -11.5 -59 t-31.5 -47t-47.5 -31.5t-58.5 -11.5q-32 0 -59 11.5t-47.5 31.5t-32 47t-11.5 59z" />
<glyph unicode="&#xfd;" horiz-adv-x="1167" d="M51 1047h273l229 -605q18 -47 31 -96q6 25 14 49t16 47l230 605h272l-555 -1444h-276l159 411zM309 1180l291 319h332l-365 -319h-258z" />
<glyph unicode="&#xfe;" horiz-adv-x="1169" d="M143 -403v1734l267 127v-487q34 45 90 72.5t135 27.5q97 0 177 -36t136.5 -105.5t87.5 -172t31 -235.5q0 -128 -32.5 -229.5t-90.5 -172t-137.5 -108t-173.5 -37.5q-78 0 -133.5 28t-89.5 73v-355zM410 317q10 -15 27 -30.5t40 -28t52 -20t63 -7.5q100 0 154.5 75.5 t54.5 215.5q0 67 -13.5 121t-40 92t-65.5 59t-90 21q-65 0 -109 -22t-73 -62v-414z" />
<glyph unicode="&#xff;" horiz-adv-x="1167" d="M51 1047h273l229 -605q18 -47 31 -96q6 25 14 49t16 47l230 605h272l-555 -1444h-276l159 411zM241 1339q0 31 11.5 58.5t32 48t47.5 32t59 11.5q31 0 58.5 -11.5t47.5 -32t31.5 -48t11.5 -58.5q0 -32 -11.5 -59t-31.5 -47t-47.5 -31.5t-58.5 -11.5q-32 0 -59 11.5 t-47.5 31.5t-32 47t-11.5 59zM630 1339q0 31 11.5 58.5t32 48t47.5 32t59 11.5q31 0 58.5 -11.5t47.5 -32t31.5 -48t11.5 -58.5q0 -32 -11.5 -59t-31.5 -47t-47.5 -31.5t-58.5 -11.5q-32 0 -59 11.5t-47.5 31.5t-32 47t-11.5 59z" />
<glyph unicode="&#x152;" horiz-adv-x="1962" d="M133 717q0 88 14.5 177.5t46 172t81.5 154t120.5 124t162.5 83t208 30.5q51 0 97 -6t91 -18h852v-263h-626v-301h338v-262h-338v-346h669v-262h-895q-42 -12 -91 -18.5t-97 -6.5q-116 0 -208 30.5t-162.5 83t-120.5 124t-81.5 154t-46 172t-14.5 178.5zM420 717 q0 -84 18 -168.5t58.5 -152.5t106.5 -111t163 -43q40 0 74.5 8t62.5 22v889q-31 16 -64 23.5t-73 7.5q-65 0 -115.5 -21t-89 -56.5t-65.5 -82.5t-44 -100t-24.5 -108t-7.5 -107z" />
<glyph unicode="&#x153;" horiz-adv-x="1847" d="M102 522q0 128 34 230t97 173t152 108.5t199 37.5q216 0 344 -143q31 34 72 60.5t87.5 45t98 28t104.5 9.5q97 0 182 -30t148 -91t99 -153.5t36 -218.5q0 -31 -3 -72t-11 -86h-678q4 -51 24 -90t50.5 -66t69.5 -41t83 -14q72 0 126.5 25.5t99.5 82.5l163 -165 q-66 -81 -162 -129t-227 -48q-53 0 -104.5 9t-98 27t-87.5 44.5t-72 61.5q-63 -69 -149.5 -105.5t-194.5 -36.5q-110 0 -199 37.5t-152 108t-97 172t-34 229.5zM369 522q0 -68 15 -122t42.5 -91.5t67.5 -57.5t90 -20t90 20t67.5 57.5t42.5 91.5t15 122q0 69 -15 123 t-42.5 92t-67.5 58t-90 20t-90 -20t-67.5 -58t-42.5 -92t-15 -123zM1065 645h428q-12 93 -67 143t-136 50q-94 0 -153.5 -47t-71.5 -146z" />
<glyph unicode="&#x178;" horiz-adv-x="1458" d="M61 1434h314l354 -586l354 586h314l-531 -875v-559h-274v559zM385 1728q0 31 11.5 58.5t32 48t47.5 32t59 11.5q31 0 58.5 -11.5t47.5 -32t31.5 -48t11.5 -58.5q0 -32 -11.5 -59t-31.5 -47t-47.5 -31.5t-58.5 -11.5q-32 0 -59 11.5t-47.5 31.5t-32 47t-11.5 59zM774 1728 q0 31 11.5 58.5t32 48t47.5 32t59 11.5q31 0 58.5 -11.5t47.5 -32t31.5 -48t11.5 -58.5q0 -32 -11.5 -59t-31.5 -47t-47.5 -31.5t-58.5 -11.5q-32 0 -59 11.5t-47.5 31.5t-32 47t-11.5 59z" />
<glyph unicode="&#x2c6;" horiz-adv-x="973" d="M68 1180l290 319h256l289 -319h-246l-172 141l-172 -141h-245z" />
<glyph unicode="&#x2dc;" horiz-adv-x="973" d="M88 1202q0 61 12 113t39.5 90t73 59t111.5 21q54 0 99.5 -14.5t85.5 -32.5t77 -32.5t76 -14.5q38 0 65.5 19.5t30.5 66.5h125q0 -62 -12 -113.5t-40 -89.5t-73 -59t-111 -21q-54 0 -99.5 14.5t-85.5 32.5t-77 32.5t-76 14.5q-38 0 -65.5 -19.5t-30.5 -66.5h-125z" />
<glyph unicode="&#x2000;" horiz-adv-x="944" />
<glyph unicode="&#x2001;" horiz-adv-x="1888" />
<glyph unicode="&#x2002;" horiz-adv-x="944" />
<glyph unicode="&#x2003;" horiz-adv-x="1888" />
<glyph unicode="&#x2004;" horiz-adv-x="629" />
<glyph unicode="&#x2005;" horiz-adv-x="472" />
<glyph unicode="&#x2006;" horiz-adv-x="314" />
<glyph unicode="&#x2007;" horiz-adv-x="314" />
<glyph unicode="&#x2008;" horiz-adv-x="236" />
<glyph unicode="&#x2009;" horiz-adv-x="377" />
<glyph unicode="&#x200a;" horiz-adv-x="104" />
<glyph unicode="&#x2010;" horiz-adv-x="844" d="M154 477v256h536v-256h-536z" />
<glyph unicode="&#x2011;" horiz-adv-x="844" d="M154 477v256h536v-256h-536z" />
<glyph unicode="&#x2012;" horiz-adv-x="844" d="M154 477v256h536v-256h-536z" />
<glyph unicode="&#x2013;" horiz-adv-x="1014" d="M102 471v234h809v-234h-809z" />
<glyph unicode="&#x2014;" horiz-adv-x="1178" d="M-10 471v234h1198v-234h-1198z" />
<glyph unicode="&#x2018;" horiz-adv-x="506" d="M72 1053q0 60 20 118.5t54.5 112t80 98t95.5 76.5l112 -84q-14 -12 -33 -34t-38.5 -48t-36 -54t-25.5 -52q50 -16 83.5 -56.5t33.5 -103.5q0 -38 -14 -69.5t-38 -54t-55 -34.5t-65 -12q-36 0 -67.5 13t-55.5 38t-37.5 61.5t-13.5 84.5z" />
<glyph unicode="&#x2019;" horiz-adv-x="506" d="M72 940q14 12 33 34t38.5 48t36 54t25.5 52q-50 16 -83.5 56.5t-33.5 103.5q0 39 14 70t38 53.5t55 34.5t65 12q36 0 67.5 -13t55.5 -37.5t37.5 -61t13.5 -84.5q0 -60 -20.5 -119t-55 -112.5t-79.5 -98.5t-95 -76z" />
<glyph unicode="&#x201a;" horiz-adv-x="506" d="M72 -205q14 12 33 34t38.5 48t36 54t25.5 53q-50 15 -83.5 55.5t-33.5 103.5q0 39 14 70t38 53.5t55 34.5t65 12q36 0 67.5 -13t55.5 -37.5t37.5 -61t13.5 -84.5q0 -60 -20.5 -119t-55 -112.5t-79.5 -98.5t-95 -76z" />
<glyph unicode="&#x201c;" horiz-adv-x="995" d="M72 1053q0 60 20 118.5t54.5 112t80 98t95.5 76.5l112 -84q-14 -12 -33 -34t-38.5 -48t-36 -54t-25.5 -52q50 -16 83.5 -56.5t33.5 -103.5q0 -38 -14 -69.5t-38 -54t-55 -34.5t-65 -12q-36 0 -67.5 13t-55.5 38t-37.5 61.5t-13.5 84.5zM561 1053q0 60 20.5 118.5t55 112 t79.5 98t95 76.5l113 -84q-14 -12 -33.5 -34t-39 -48t-36 -54t-24.5 -52q49 -16 82.5 -56.5t33.5 -103.5q0 -38 -14 -69.5t-38 -54t-55 -34.5t-65 -12q-36 0 -67.5 13t-55.5 38t-37.5 61.5t-13.5 84.5z" />
<glyph unicode="&#x201d;" horiz-adv-x="995" d="M72 940q14 12 33 34t38.5 48t36 54t25.5 52q-50 16 -83.5 56.5t-33.5 103.5q0 39 14 70t38 53.5t55 34.5t65 12q36 0 67.5 -13t55.5 -37.5t37.5 -61t13.5 -84.5q0 -60 -20.5 -119t-55 -112.5t-79.5 -98.5t-95 -76zM561 940q14 12 33.5 34t39 48t36 54t24.5 52 q-49 16 -82.5 56.5t-33.5 103.5q0 39 14 70t38 53.5t55 34.5t65 12q36 0 67.5 -13t55.5 -37.5t37.5 -61t13.5 -84.5q0 -60 -20.5 -119t-55 -112.5t-79.5 -98.5t-95 -76z" />
<glyph unicode="&#x201e;" horiz-adv-x="995" d="M72 -205q14 12 33 34t38.5 48t36 54t25.5 53q-50 15 -83.5 55.5t-33.5 103.5q0 39 14 70t38 53.5t55 34.5t65 12q36 0 67.5 -13t55.5 -37.5t37.5 -61t13.5 -84.5q0 -60 -20.5 -119t-55 -112.5t-79.5 -98.5t-95 -76zM561 -205q14 12 33.5 34t39 48t36 54t24.5 53 q-49 15 -82.5 55.5t-33.5 103.5q0 39 14 70t38 53.5t55 34.5t65 12q36 0 67.5 -13t55.5 -37.5t37.5 -61t13.5 -84.5q0 -60 -20.5 -119t-55 -112.5t-79.5 -98.5t-95 -76z" />
<glyph unicode="&#x2022;" horiz-adv-x="862" d="M123 717q0 61 23 115.5t64 95.5t97 64.5t121 23.5t122 -23.5t99 -64.5t66 -95.5t24 -115.5q0 -62 -24 -116.5t-66 -94.5t-99 -63t-122 -23t-121 23t-97 63t-64 94.5t-23 116.5z" />
<glyph unicode="&#x2026;" horiz-adv-x="2144" d="M184 143q0 36 13 67t36 54t54.5 36t68.5 13t69 -13t55 -36t36.5 -54t13.5 -67q0 -35 -13.5 -66t-36.5 -53.5t-55 -35.5t-69 -13t-68.5 13t-54.5 35.5t-36 53.5t-13 66zM899 143q0 36 13 67t36 54t54.5 36t68.5 13t68.5 -13t55 -36t37 -54t13.5 -67q0 -35 -13.5 -66 t-37 -53.5t-55 -35.5t-68.5 -13t-68.5 13t-54.5 35.5t-36 53.5t-13 66zM1614 143q0 36 13 67t36 54t54.5 36t68.5 13t68.5 -13t55 -36t37 -54t13.5 -67q0 -35 -13.5 -66t-37 -53.5t-55 -35.5t-68.5 -13t-68.5 13t-54.5 35.5t-36 53.5t-13 66z" />
<glyph unicode="&#x202f;" horiz-adv-x="377" />
<glyph unicode="&#x2039;" horiz-adv-x="690" d="M61 524l312 523h286l-311 -523l311 -524h-286z" />
<glyph unicode="&#x203a;" horiz-adv-x="690" d="M31 0l311 524l-311 523h286l312 -523l-312 -524h-286z" />
<glyph unicode="&#x205f;" horiz-adv-x="472" />
<glyph unicode="&#x20ac;" horiz-adv-x="1309" d="M80 444l86 197h80q-1 9 -1.5 20.5t-0.5 22.5v20v13v18t2 29h-166l86 199h106q20 101 60.5 191t104.5 157.5t154 107t210 39.5q94 0 190.5 -30.5t200.5 -106.5l-98 -242q-29 25 -60.5 47.5t-67.5 39.5t-76.5 26.5t-88.5 9.5q-50 0 -89.5 -17.5t-70.5 -49t-52.5 -75 t-35.5 -95.5h496l-82 -201h-445q-2 -20 -2 -29.5v-17.5v-13v-20t0.5 -22.5t1.5 -20.5h398l-82 -201h-281q23 -99 80 -154t143 -55q71 0 129 38.5t105 107.5l213 -131q-37 -61 -83.5 -111t-102.5 -85.5t-121 -55t-140 -19.5q-117 0 -203.5 35.5t-148 98.5t-99.5 148.5 t-57 186.5h-192z" />
<glyph unicode="&#x2122;" horiz-adv-x="1731" d="M41 1251v183h631v-183h-215v-682h-199v682h-217zM723 569v865h242l172 -398l18 -51l19 51l172 398h241v-865h-198v531l-19 -56l-213 -491l-215 491l-20 62v-537h-199z" />
<glyph unicode="&#x25fc;" horiz-adv-x="1045" d="M0 0v1045h1045v-1045h-1045z" />
</font>
</defs>
</svg>
