<?xml version="1.0" standalone="no"?>
<!DOCTYPE svg PUBLIC "-//W3C//DTD SVG 1.1//EN" "http://www.w3.org/Graphics/SVG/1.1/DTD/svg11.dtd" >
<svg xmlns="http://www.w3.org/2000/svg">
<metadata></metadata>
<defs>
<font id="overpassextralight" horiz-adv-x="1368" >
<font-face units-per-em="2048" ascent="1536" descent="-512" />
<missing-glyph horiz-adv-x="471" />
<glyph unicode="&#xfb01;" horiz-adv-x="1132" d="M88 979v68h168v188q0 223 201 223q33 0 65.5 -9t59.5 -24v-65q-29 12 -56.5 21.5t-68.5 9.5q-72 0 -99.5 -39t-27.5 -125v-180h252v-68h-252v-979h-74v979h-168zM809 1356q0 27 17.5 45t41.5 18q27 0 43.5 -18.5t16.5 -44.5q0 -25 -16.5 -42.5t-43.5 -17.5 q-25 0 -42 17.5t-17 42.5zM831 0v1047h74v-1047h-74z" />
<glyph unicode="&#xfb02;" horiz-adv-x="1120" d="M88 979v68h168v188q0 223 201 223q33 0 65.5 -9t59.5 -24v-65q-29 12 -56.5 21.5t-68.5 9.5q-72 0 -99.5 -39t-27.5 -125v-180h252v-68h-252v-979h-74v979h-168zM825 0v1442l74 37v-1479h-74z" />
<glyph horiz-adv-x="0" />
<glyph horiz-adv-x="682" />
<glyph unicode=" "  horiz-adv-x="471" />
<glyph unicode="&#x09;" horiz-adv-x="471" />
<glyph unicode="&#xa0;" horiz-adv-x="471" />
<glyph unicode="!" horiz-adv-x="565" d="M223 31q0 27 17.5 45t42.5 18q27 0 43 -18.5t16 -44.5q0 -25 -16 -42.5t-43 -17.5q-25 0 -42.5 17.5t-17.5 42.5zM244 942v516h78v-516l-29 -547h-21z" />
<glyph unicode="&#x22;" horiz-adv-x="761" d="M170 887v547h78v-547h-78zM514 887v547h78v-547h-78z" />
<glyph unicode="#" horiz-adv-x="1415" d="M145 446l13 74h245l68 416h-248l13 74h245l68 424h78l-68 -424h383l68 424h86l-68 -424h242l-10 -74h-242l-68 -416h244l-12 -74h-242l-70 -446h-86l70 446h-383l-70 -446h-79l71 446h-248zM481 520h383l68 416h-383z" />
<glyph unicode="$" horiz-adv-x="1224" d="M166 276l78 27q51 -115 148 -185.5t226 -70.5q154 0 246 78t92 231q0 74 -28.5 132.5t-76.5 104.5t-110.5 81t-130.5 61q-72 29 -142.5 62.5t-127.5 82t-92 112t-35 153.5q0 129 92 217t268 96v158h74v-162q117 -10 205 -71.5t121 -159.5l-74 -25q-37 90 -112.5 139 t-192.5 49q-143 0 -223 -65.5t-80 -179.5q0 -70 30.5 -120t80 -89t113 -68.5t128.5 -56.5q68 -29 137.5 -65.5t126 -90t92 -126t35.5 -171.5q0 -86 -28.5 -154.5t-80 -116.5t-122 -74.5t-156.5 -31.5v-178h-74v178q-74 6 -138 33t-116.5 67t-90.5 91t-62 108z" />
<glyph unicode="%" horiz-adv-x="1832" d="M150 1094q0 59 15 123.5t52 118t96.5 88t147.5 34.5t147.5 -34.5t96 -88t52 -118t15.5 -123.5q0 -66 -16.5 -130.5t-53 -116.5t-96 -85t-145.5 -33t-145.5 33t-96.5 85t-53 116.5t-16 130.5zM227 1094q0 -53 12.5 -104.5t40 -93.5t73 -67.5t108.5 -25.5t108 25.5t73 67.5 t40 93t12 105q0 47 -12 98t-40 94t-72 70.5t-109 27.5q-66 0 -110 -27.5t-71.5 -70.5t-40 -94t-12.5 -98zM383 -25l979 1483h88l-979 -1483h-88zM1061 340q0 59 15.5 123.5t52 118t96 88.5t147.5 35t147.5 -35t96.5 -88.5t52 -118t15 -123.5q0 -66 -16 -130.5t-53 -116.5 t-96.5 -85t-145.5 -33t-145.5 33t-96 85t-53 116.5t-16.5 130.5zM1139 340q0 -53 12 -104.5t40 -93.5t73 -67.5t108 -25.5t108.5 25.5t73 67.5t40 93.5t12.5 104.5q0 47 -12.5 98t-40 94t-71.5 71t-110 28t-109.5 -28t-71.5 -71t-40 -94t-12 -98z" />
<glyph unicode="&#x26;" horiz-adv-x="1343" d="M129 350q0 76 27.5 139.5t76 118t114 102.5t140.5 91q-53 66 -91 118t-60.5 95t-32.5 82t-10 75q0 68 24.5 121.5t65.5 90t97.5 56t121.5 19.5q63 0 117.5 -21.5t93.5 -60.5t61.5 -92t22.5 -117q0 -115 -74.5 -206t-222.5 -177l369 -436q41 72 65.5 151t34.5 154h78 q-8 -86 -39 -181t-86 -185l244 -287h-107l-184 219q-80 -104 -195.5 -174t-265.5 -70q-86 0 -156.5 26t-122 75t-79 118.5t-27.5 155.5zM207 350q0 -72 23.5 -128t64.5 -95t97 -58.5t122 -19.5q135 0 237.5 64.5t174.5 165.5l-394 466q-154 -88 -239.5 -181t-85.5 -214z M371 1171q0 -72 49 -150.5t135 -182.5q129 76 196.5 154.5t67.5 162.5q0 106 -65.5 167.5t-159.5 61.5q-100 0 -161.5 -57.5t-61.5 -155.5z" />
<glyph unicode="'" horiz-adv-x="417" d="M170 887v547h78v-547h-78z" />
<glyph unicode="(" horiz-adv-x="708" d="M223 582q0 162 23.5 297t61.5 242.5t87 191.5t101 145h73q-27 -33 -71.5 -109.5t-88.5 -189t-76 -259t-32 -318.5q0 -176 29.5 -317.5t70.5 -249t82 -178t64 -103.5h-74q-47 61 -92 140t-80 182.5t-56.5 232.5t-21.5 293z" />
<glyph unicode=")" horiz-adv-x="708" d="M139 1458h74q51 -61 100 -145t87 -191.5t61.5 -243t23.5 -296.5q0 -164 -21.5 -293t-56 -232.5t-79.5 -182.5t-92 -140h-74q23 33 63.5 103.5t81.5 178t71 249t30 317.5q0 172 -32 318.5t-76 259t-89 189t-72 109.5z" />
<glyph unicode="*" horiz-adv-x="1093" d="M129 1112l27 74l198 -66l178 -92l-26 191v215h82v-215l-27 -191l178 92l199 66l27 -74l-197 -65l-203 -43l150 -150l123 -170l-64 -49l-123 170l-104 184l-105 -184l-123 -170l-63 49l123 170l149 150l-202 43z" />
<glyph unicode="+" horiz-adv-x="1363" d="M201 664v73h440v447h78v-447h444v-73h-444v-443h-78v443h-440z" />
<glyph unicode="," horiz-adv-x="434" d="M158 31q0 29 17.5 46t41.5 17q29 0 48.5 -20.5t19.5 -73.5q0 -43 -10.5 -87t-26 -82t-34.5 -69.5t-38 -50.5l-18 6q29 41 48 105.5t19 122.5q0 8 -1 14t-1 12q-29 0 -47 16.5t-18 43.5z" />
<glyph unicode="-" horiz-adv-x="837" d="M190 573v74h457v-74h-457z" />
<glyph unicode="." horiz-adv-x="434" d="M158 31q0 27 17.5 45t41.5 18q27 0 43 -18.5t16 -44.5q0 -25 -16 -42.5t-43 -17.5q-25 0 -42 17.5t-17 42.5z" />
<glyph unicode="/" horiz-adv-x="1007" d="M35 -266l805 1724h82l-805 -1724h-82z" />
<glyph unicode="0" horiz-adv-x="1282" d="M184 717q0 74 8.5 159t28 166.5t53 157.5t85 133.5t121 91t161.5 33.5q131 0 218 -66.5t140.5 -173t76 -238.5t22.5 -263q0 -76 -8.5 -160t-29 -167t-54 -157.5t-84 -132t-120 -91.5t-161.5 -34q-131 0 -218 65.5t-140.5 171t-76 238t-22.5 267.5zM264 717 q0 -121 18.5 -241t62.5 -215t115.5 -153.5t180.5 -58.5q113 0 186.5 65.5t115.5 166t58.5 217t16.5 219.5q0 119 -18.5 237.5t-62.5 214t-116.5 155.5t-179.5 60q-115 0 -187.5 -66.5t-114.5 -166.5t-58.5 -217t-16.5 -217z" />
<glyph unicode="1" horiz-adv-x="696" d="M123 1192v49q70 0 115 7t74.5 27.5t47 58.5t29.5 100h51v-1434h-73v1192h-244z" />
<glyph unicode="2" horiz-adv-x="1241" d="M180 0q0 121 30 207t82 151.5t124.5 118.5t161.5 111q70 45 139 92t124.5 104.5t89.5 127t34 159.5q0 137 -88.5 225t-245.5 88q-141 0 -230.5 -73.5t-121.5 -192.5l-70 33q18 66 55 122t90.5 97t123 64.5t153.5 23.5q98 0 174 -28.5t129 -80t80.5 -122t27.5 -156.5 q0 -104 -37.5 -184t-98 -143.5t-136.5 -116t-154 -101.5q-82 -53 -146 -101t-108.5 -100.5t-70 -113.5t-27.5 -137h791v-74h-875z" />
<glyph unicode="3" horiz-adv-x="1220" d="M129 285l72 26q57 -127 153.5 -194.5t237.5 -67.5q78 0 145.5 20.5t117.5 61.5t79 101.5t29 140.5q0 156 -91.5 246t-261.5 90h-78v71h48q70 0 129 21.5t103 62.5t68.5 100.5t24.5 133.5q0 66 -23.5 119t-65.5 89.5t-98 57t-122 20.5q-70 0 -125 -20.5t-97 -53t-72 -72.5 t-48 -77l-70 29q23 49 61 97t90 86t117.5 61.5t143.5 23.5q82 0 153.5 -25.5t123 -73.5t81 -114.5t29.5 -146.5q0 -109 -55.5 -204t-177.5 -142q133 -27 211.5 -129.5t78.5 -249.5q0 -92 -33.5 -165t-94 -125t-142.5 -80t-178 -28q-94 0 -169 26t-131 69t-97 98t-66 117z " />
<glyph unicode="4" horiz-adv-x="1214" d="M98 418v43l742 973h32v-949h218v-67h-218v-418h-73v418h-701zM203 485h596v785z" />
<glyph unicode="5" horiz-adv-x="1298" d="M186 162l50 61q25 -29 61.5 -58.5t84.5 -56t108.5 -43t134.5 -16.5q106 0 183 35t127 92t74.5 133t24.5 156q0 86 -28.5 157.5t-80 123t-122 79t-154.5 27.5q-123 0 -207 -48t-141 -114l-61 17l116 727h662v-74h-596l-88 -549q59 53 139 84t178 31t183.5 -34t146.5 -94.5 t96 -145.5t35 -187q0 -94 -29.5 -182t-90 -157t-152.5 -110t-217 -41q-80 0 -147.5 18.5t-123 46.5t-97.5 60.5t-69 61.5z" />
<glyph unicode="6" horiz-adv-x="1212" d="M160 465q0 172 42 326.5t125 283.5t209 226.5t295 156.5v-76q-225 -78 -375.5 -252t-203.5 -444q53 86 147.5 135t198.5 49q100 0 181 -33.5t137.5 -92t87 -139.5t30.5 -175q0 -98 -31.5 -181t-88 -144.5t-137.5 -95.5t-179 -34q-119 0 -203 44t-136 114t-75.5 157 t-23.5 175zM242 430q0 -82 25.5 -151.5t72.5 -121t112.5 -80t145.5 -28.5t146.5 28.5t113.5 78t72.5 117t25.5 147.5q0 82 -24.5 151.5t-71.5 119.5t-113.5 78t-148.5 28q-78 0 -143.5 -28t-112.5 -77t-73.5 -116.5t-26.5 -145.5z" />
<glyph unicode="7" horiz-adv-x="1034" d="M111 1360v74h813v-64q-156 -176 -248 -361.5t-141.5 -363.5t-64.5 -343t-17 -302h-80q2 174 24.5 345t75.5 341t143.5 338t229.5 336h-735z" />
<glyph unicode="8" horiz-adv-x="1236" d="M182 391q0 72 21.5 137.5t59.5 117.5t93.5 89t122.5 56q-113 35 -172 121.5t-59 189.5q0 74 27.5 138.5t77.5 113.5t117.5 76.5t147.5 27.5t148 -27.5t118 -76.5t77.5 -113.5t27.5 -138.5q0 -102 -57.5 -188.5t-177.5 -122.5q141 -39 221 -146.5t80 -253.5 q0 -88 -33 -163.5t-91.5 -132t-138 -88.5t-174.5 -32q-94 0 -173.5 32t-138 88.5t-91.5 132t-33 163.5zM264 391q0 -80 26.5 -142.5t75 -107.5t112.5 -68.5t140 -23.5t140.5 23.5t112 68.5t75 107.5t27.5 142.5q0 74 -25.5 140.5t-72 116.5t-112 79t-145.5 29t-145 -29 t-111.5 -79t-72 -116.5t-25.5 -140.5zM326 1102q0 -125 78.5 -203t213.5 -78t214 78t79 203q0 66 -22.5 118t-61.5 89t-93 56t-116 19q-61 0 -115 -19t-93 -56t-61.5 -89.5t-22.5 -117.5z" />
<glyph unicode="9" horiz-adv-x="1212" d="M158 1018q0 94 32.5 174t91 139.5t139.5 93t177 33.5q106 0 188 -41t137.5 -107.5t83 -151.5t27.5 -175q0 -180 -47 -343t-133 -296t-205 -228.5t-262 -140.5v74q113 37 206 109.5t162.5 168t113.5 208t61 231.5q-49 -74 -137 -125t-224 -51q-90 0 -165.5 32.5t-130 91 t-85 136.5t-30.5 168zM236 1028q0 -78 24.5 -144.5t69.5 -115.5t108.5 -76.5t141.5 -27.5q82 0 150.5 27.5t117.5 74.5t75.5 112.5t26.5 139.5q0 78 -27.5 145.5t-75.5 116.5t-112.5 76.5t-140.5 27.5q-80 0 -145.5 -27.5t-113.5 -75.5t-73.5 -113.5t-25.5 -139.5z" />
<glyph unicode=":" horiz-adv-x="434" d="M158 31q0 27 17.5 45t41.5 18q27 0 43 -18.5t16 -44.5q0 -25 -16 -42.5t-43 -17.5q-25 0 -42 17.5t-17 42.5zM158 926q0 27 17.5 45t41.5 18q27 0 43 -18.5t16 -44.5q0 -25 -16 -42.5t-43 -17.5q-25 0 -42 17.5t-17 42.5z" />
<glyph unicode=";" horiz-adv-x="434" d="M158 31q0 29 17.5 46t41.5 17q29 0 48.5 -20.5t19.5 -73.5q0 -43 -10.5 -87t-26 -82t-34.5 -69.5t-38 -50.5l-18 6q29 41 48 105.5t19 122.5q0 8 -1 14t-1 12q-29 0 -47 16.5t-18 43.5zM158 926q0 27 17.5 45t41.5 18q27 0 43 -18.5t16 -44.5q0 -25 -16 -42.5t-43 -17.5 q-25 0 -42 17.5t-17 42.5z" />
<glyph unicode="&#x3c;" horiz-adv-x="1363" d="M201 664v77l962 418v-84l-866 -373l866 -372v-84z" />
<glyph unicode="=" horiz-adv-x="1363" d="M201 469v74h962v-74h-962zM201 858v74h962v-74h-962z" />
<glyph unicode="&#x3e;" horiz-adv-x="1363" d="M201 246v84l866 372l-866 373v84l962 -418v-77z" />
<glyph unicode="?" horiz-adv-x="1089" d="M139 1167q45 141 152.5 216t257.5 75q96 0 170 -28.5t125 -79t76.5 -118t25.5 -142.5q0 -84 -28.5 -144.5t-71.5 -111t-92 -94.5t-92.5 -94t-72 -111.5t-28.5 -145.5v-70h-78v70q0 90 29 156.5t72 120t92 98.5t92 92t71.5 102.5t28.5 131.5q0 61 -20.5 114t-61.5 93 t-100 63.5t-137 23.5q-264 0 -340 -247zM463 31q0 27 17.5 45t41.5 18q27 0 43.5 -18.5t16.5 -44.5q0 -25 -16.5 -42.5t-43.5 -17.5q-25 0 -42 17.5t-17 42.5z" />
<glyph unicode="@" horiz-adv-x="1648" d="M137 684q0 170 58.5 312.5t159 244.5t231.5 159.5t276 57.5q143 0 263 -43t206 -122t133 -189.5t47 -245.5q0 -117 -24.5 -214t-66.5 -167.5t-99 -109.5t-121 -39q-66 0 -111 37.5t-53 113.5q-29 -53 -62.5 -86t-70.5 -51t-71.5 -25.5t-65.5 -7.5q-133 0 -213 90t-80 256 q0 78 24.5 155t71.5 137.5t114 98t151 37.5q55 0 97 -17t73.5 -46t51 -64.5t29.5 -74.5l31 176h72l-72 -420q-6 -33 -9 -66.5t-3 -56.5q0 -59 25.5 -91t70.5 -32q49 0 92 35t74 96.5t49.5 147.5t18.5 188q0 117 -42 214t-118 166t-181.5 107.5t-230.5 38.5 q-133 0 -250.5 -52t-206 -146t-139.5 -222t-51 -282q0 -133 42 -249t121 -201t193.5 -134t259.5 -49q61 0 129 6t125 21l-16 -74q-53 -14 -115.5 -20.5t-130.5 -6.5q-141 0 -266 47.5t-218 138.5t-147.5 222t-54.5 301zM551 653q0 -127 61.5 -199.5t161.5 -72.5 q63 0 115.5 28.5t89.5 78t57.5 114t20.5 137.5q0 61 -17.5 112.5t-47 86.5t-68.5 54.5t-82 19.5q-72 0 -126 -29t-91 -78t-55.5 -114.5t-18.5 -137.5z" />
<glyph unicode="A" d="M166 0l491 1434h50l495 -1434h-72l-143 403h-608l-137 -403h-76zM397 465h572l-213 618q-4 12 -13.5 41t-20.5 63t-21.5 67.5t-16.5 56.5q-6 -23 -16.5 -57.5t-22.5 -69.5t-22.5 -62.5t-12.5 -38.5z" />
<glyph unicode="B" horiz-adv-x="1314" d="M236 0v1434h440q117 0 194.5 -31t124.5 -81t66.5 -113.5t19.5 -131.5q0 -119 -72.5 -210t-203.5 -119q72 -6 132 -35t103 -76t68 -110.5t25 -141.5q0 -70 -20.5 -138.5t-70 -123.5t-130.5 -89t-203 -34h-473zM309 66h418q96 0 160.5 25.5t102.5 68.5t53.5 98t15.5 113 q0 68 -17.5 129t-62.5 108t-122 75t-195 28h-353v-645zM309 776h328q184 0 277.5 83t93.5 222q0 51 -13.5 103.5t-50.5 92.5t-100.5 65.5t-161.5 25.5h-373v-592z" />
<glyph unicode="C" horiz-adv-x="1331" d="M184 717q0 143 34 276t101.5 236.5t172 166t245.5 62.5q90 0 157 -19.5t114 -52t80.5 -74.5t58.5 -85l-64 -37q-23 37 -50 71.5t-67 62.5t-96.5 44t-132.5 16q-121 0 -210 -56t-147 -148.5t-87 -213t-29 -249.5q0 -127 25.5 -248t83 -214t147.5 -149.5t219 -56.5 q72 0 130.5 18.5t102.5 48t75.5 68.5t52.5 80l67 -26q-23 -49 -60.5 -96.5t-89.5 -84.5t-122 -59.5t-156 -22.5q-150 0 -255 63.5t-171.5 167t-97.5 236.5t-31 275z" />
<glyph unicode="D" horiz-adv-x="1382" d="M236 0v1434h327q178 0 300 -62.5t196 -164t106.5 -229.5t32.5 -261q0 -123 -29.5 -251t-103.5 -231.5t-198 -169t-312 -65.5h-319zM309 74h246q166 0 274.5 59.5t173 151.5t90 206.5t25.5 225.5q0 119 -28.5 234.5t-93 205.5t-171 146.5t-262.5 56.5h-254v-1286z" />
<glyph unicode="E" horiz-adv-x="1212" d="M236 0v1434h747v-68h-674v-590h455v-67h-455v-641h719v-68h-792z" />
<glyph unicode="F" horiz-adv-x="1146" d="M236 0v1434h768v-68h-695v-590h469v-67h-469v-709h-73z" />
<glyph unicode="G" horiz-adv-x="1415" d="M184 717q0 147 33 281.5t101.5 236.5t174 162.5t250.5 60.5q76 0 137.5 -17.5t108.5 -45t83 -63.5t63 -70l-66 -43q-47 66 -125 115.5t-201 49.5q-133 0 -224 -60t-148.5 -156.5t-82 -215t-24.5 -235.5q0 -129 27.5 -250t86 -214t148.5 -148.5t217 -55.5q172 0 274.5 124 t102.5 378v24h-301v70h379v-70q0 -160 -34 -273.5t-95 -186t-144.5 -106.5t-181.5 -34q-152 0 -257 63.5t-172.5 167t-98.5 236.5t-31 275z" />
<glyph unicode="H" horiz-adv-x="1388" d="M236 0v1434h73v-654h770v654h74v-1434h-74v711h-770v-711h-73z" />
<glyph unicode="I" horiz-adv-x="544" d="M236 0v1434h73v-1434h-73z" />
<glyph unicode="J" horiz-adv-x="1110" d="M88 219l62 33q41 -92 112.5 -149.5t198.5 -57.5q57 0 118.5 17.5t112.5 63.5t84 126t33 205v977h74v-973q0 -147 -40 -241.5t-101.5 -149t-136 -75t-144.5 -20.5q-156 0 -241 64.5t-132 179.5z" />
<glyph unicode="K" horiz-adv-x="1288" d="M236 0v1434h73v-785l623 785h88l-387 -488l516 -946h-86l-481 883l-273 -342v-541h-73z" />
<glyph unicode="L" horiz-adv-x="1107" d="M236 0v1434h73v-1366h711v-68h-784z" />
<glyph unicode="M" horiz-adv-x="1654" d="M236 0v1434h65l526 -1268l527 1268h65v-1434h-73v1221l-519 -1246l-518 1246v-1221h-73z" />
<glyph unicode="N" horiz-adv-x="1415" d="M236 0v1434h71l799 -1293v1293h74v-1434h-72l-799 1292v-1292h-73z" />
<glyph unicode="O" horiz-adv-x="1486" d="M184 717q0 133 30 265t96.5 238.5t173 172t259.5 65.5q154 0 260.5 -65.5t173 -172t96.5 -238.5t30 -265t-30 -265.5t-96.5 -239t-173 -172t-260.5 -65.5t-260 65.5t-172.5 172t-96.5 239t-30 265.5zM264 717q0 -127 24.5 -248t81 -214t148.5 -149.5t225 -56.5 t225.5 60.5t149 156.5t81 215t24.5 236q0 127 -24.5 247.5t-81 214t-148.5 149.5t-226 56q-133 0 -225 -60t-148.5 -156.5t-81 -215t-24.5 -235.5z" />
<glyph unicode="P" horiz-adv-x="1247" d="M236 0v1434h448q129 0 215 -37t138.5 -96.5t75 -135t22.5 -153.5q0 -72 -24 -146.5t-78 -135t-140 -99.5t-209 -39h-375v-592h-73zM309 666h375q102 0 173 31.5t115 81.5t63.5 111.5t19.5 121.5q0 63 -18.5 125.5t-61.5 111.5t-113.5 80t-177.5 31h-375v-694z" />
<glyph unicode="Q" horiz-adv-x="1486" d="M184 717q0 133 30 265t96.5 238.5t173 172t259.5 65.5q154 0 260.5 -65.5t173 -172t96.5 -238.5t30 -265q0 -84 -11.5 -169t-37 -165t-65.5 -149.5t-95 -122.5l127 -189l-56 -39l-123 185q-59 -43 -132.5 -68t-166.5 -25q-154 0 -260 65.5t-172.5 172t-96.5 239 t-30 265.5zM264 717q0 -127 24.5 -248t81 -214t148.5 -149.5t225 -56.5q78 0 141.5 21.5t114.5 60.5l-125 186l56 39l121 -180q47 49 79.5 111.5t53 133.5t30 146.5t9.5 149.5q0 127 -24.5 247.5t-81 214t-148.5 149.5t-226 56q-133 0 -225 -60t-148.5 -156.5t-81 -215 t-24.5 -235.5z" />
<glyph unicode="R" horiz-adv-x="1339" d="M236 0v1434h491q117 0 195.5 -33t127 -86t69 -119.5t20.5 -136.5q0 -72 -21.5 -138.5t-67.5 -118.5t-117 -86t-169 -42l330 -674h-82l-326 674h-377v-674h-73zM309 741h418q94 0 158.5 29t103.5 74t55.5 101t16.5 114q0 49 -15.5 103.5t-53.5 99.5t-102.5 74.5 t-162.5 29.5h-418v-625z" />
<glyph unicode="S" horiz-adv-x="1228" d="M166 276l78 25q51 -115 148 -184.5t226 -69.5q154 0 246 78t92 231q0 74 -28.5 132.5t-76.5 104.5t-110.5 81t-130.5 61q-72 29 -142.5 62.5t-127.5 82t-92 112t-35 153.5q0 68 25.5 125t74.5 99t121 65.5t166 23.5q68 0 127 -16.5t108.5 -47t84 -74.5t53.5 -97l-74 -23 q-37 90 -112.5 138t-192.5 48q-143 0 -223 -65.5t-80 -179.5q0 -70 30.5 -120t80 -89t113 -68.5t128.5 -56.5q68 -29 137.5 -65.5t126 -90t92 -126t35.5 -171.5q0 -90 -30.5 -160.5t-86 -118.5t-132 -74t-169.5 -26q-82 0 -153.5 25t-129 65.5t-100.5 95t-67 115.5z" />
<glyph unicode="T" horiz-adv-x="1161" d="M150 1366v68h862v-68h-396v-1366h-73v1366h-393z" />
<glyph unicode="U" d="M227 510v924h74v-920q0 -141 32 -232.5t84 -143.5t121.5 -72.5t145.5 -20.5t145.5 20.5t122 72.5t84 143.5t31.5 232.5v920h74v-924q0 -143 -32 -244.5t-90 -166t-143.5 -94.5t-191.5 -30t-191 30t-143.5 94.5t-90.5 166t-32 244.5z" />
<glyph unicode="V" horiz-adv-x="1314" d="M139 1434h80l438 -1280l439 1280h80l-490 -1434h-57z" />
<glyph unicode="W" horiz-adv-x="1724" d="M139 1434h80l301 -1250l311 1250h62l311 -1250l301 1250h80l-348 -1434h-61l-314 1253l-313 -1253h-62z" />
<glyph unicode="X" horiz-adv-x="1138" d="M119 0l411 750l-376 684h82l333 -611l334 611h82l-377 -684l412 -750h-82l-369 674l-368 -674h-82z" />
<glyph unicode="Y" horiz-adv-x="1249" d="M121 1434h80l424 -791l424 791h79l-466 -867v-567h-74v567z" />
<glyph unicode="Z" horiz-adv-x="1239" d="M147 0v39l846 1327h-798v68h897v-43l-838 -1323h838v-68h-945z" />
<glyph unicode="[" horiz-adv-x="788" d="M276 -266v1724h359v-69h-285v-1586h285v-69h-359z" />
<glyph unicode="\" horiz-adv-x="1007" d="M37 1458h78l805 -1724h-78z" />
<glyph unicode="]" horiz-adv-x="788" d="M154 -197h284v1586h-284v69h358v-1724h-358v69z" />
<glyph unicode="^" horiz-adv-x="1363" d="M246 741l397 717h78l397 -717h-78l-358 617l-358 -617h-78z" />
<glyph unicode="_" horiz-adv-x="1097" d="M27 -250h1044v-67h-1044v67z" />
<glyph unicode="`" horiz-adv-x="698" d="M78 1499h112l310 -319h-76z" />
<glyph unicode="a" horiz-adv-x="1079" d="M160 315q0 86 28.5 148.5t76.5 103.5t113.5 60.5t139.5 19.5q84 0 160 -26.5t147 -73.5v155q0 92 -21.5 151.5t-56 92.5t-82 45.5t-96.5 12.5q-86 0 -170 -32t-145 -69l-23 64q59 35 147.5 69.5t196.5 34.5q55 0 112.5 -14.5t105 -51t77 -102t29.5 -170.5v-733h-74v164 q-61 -86 -148 -137.5t-183 -51.5q-154 0 -244 87.5t-90 252.5zM240 315q0 -123 68.5 -197.5t185.5 -74.5q57 0 106 18.5t90 48t75 66.5t60 74v227q-59 41 -138 72t-169 31q-53 0 -103 -16.5t-89 -48.5t-62.5 -82t-23.5 -118z" />
<glyph unicode="b" horiz-adv-x="1155" d="M221 0v1442l74 37v-586q49 82 132 130t181 48q182 0 290 -143.5t108 -403.5q0 -268 -102.5 -408.5t-282.5 -140.5q-104 0 -182.5 41t-143.5 134v-150h-74zM295 264q49 -96 133 -155.5t186 -59.5q154 0 233 129t79 346q0 229 -81 351t-239 122q-57 0 -106 -20.5t-89 -52 t-70 -69.5t-46 -71v-520z" />
<glyph unicode="c" horiz-adv-x="989" d="M150 522q0 260 103 404.5t288 144.5q106 0 186 -56.5t119 -162.5l-74 -29q-29 84 -90 129t-141 45q-156 0 -234 -120.5t-78 -354.5q0 -225 81 -349t216 -124q94 0 164 52.5t96 140.5l74 -27q-35 -111 -123 -175.5t-211 -64.5q-174 0 -275 142.5t-101 404.5z" />
<glyph unicode="d" horiz-adv-x="1155" d="M150 524q0 260 107.5 403.5t305.5 143.5q57 0 103.5 -16.5t82 -42t63.5 -57t48 -62.5v549l74 37v-1479h-74v150q-63 -92 -143 -133.5t-170 -41.5q-92 0 -166 39t-125 111t-78.5 173t-27.5 226zM229 524q0 -98 23.5 -185t66.5 -151.5t104.5 -101.5t139.5 -37 q90 0 170 62.5t127 152.5v522q-18 31 -46 67t-64.5 68.5t-84 54t-102.5 21.5q-162 0 -248 -122.5t-86 -350.5z" />
<glyph unicode="e" horiz-adv-x="1087" d="M150 524q0 131 31.5 232.5t87 171t132 106.5t168.5 37q84 0 154 -31.5t120 -98.5t77.5 -170t27.5 -247v-22h-719q8 -236 98.5 -344.5t247.5 -108.5q59 0 124 20.5t122 67.5l43 -53q-55 -47 -132 -78t-163 -31q-201 0 -310 147.5t-109 401.5zM229 569h641q0 131 -29.5 216 t-74.5 133.5t-97.5 67t-99.5 18.5q-70 0 -129 -26t-104 -78t-72.5 -135t-34.5 -196z" />
<glyph unicode="f" horiz-adv-x="669" d="M88 979v68h168v188q0 223 201 223q33 0 65.5 -9t59.5 -24v-65q-29 12 -56.5 21.5t-68.5 9.5q-72 0 -99.5 -39t-27.5 -125v-180h252v-68h-252v-979h-74v979h-168z" />
<glyph unicode="g" horiz-adv-x="1159" d="M150 524q0 129 29.5 230.5t83.5 172t129 107.5t167 37q57 0 106.5 -15.5t88.5 -41t66.5 -57t43.5 -62.5v152h74v-1094q0 -113 -40 -185.5t-104.5 -115.5t-146.5 -62.5t-168 -25.5l-39 65q231 12 327.5 95t96.5 237v211q-49 -102 -132 -149.5t-181 -47.5q-80 0 -152.5 35 t-128 103.5t-88 171t-32.5 239.5zM229 524q0 -115 26 -203t70 -148t103 -92t125 -32q53 0 101 18.5t88 50.5t71 72.5t51 83.5v523q-53 98 -134 149t-171 51q-160 0 -245 -121.5t-85 -351.5z" />
<glyph unicode="h" horiz-adv-x="1150" d="M221 0v1442l74 37v-621q20 57 56 98t79 67t88 37t86 11q166 0 251 -105.5t85 -326.5v-639h-74v655q0 94 -19.5 161t-54 108t-84 59t-110.5 18q-66 0 -121 -20t-95 -66.5t-63.5 -121t-23.5 -185.5v-608h-74z" />
<glyph unicode="i" horiz-adv-x="528" d="M205 1356q0 27 17.5 45t41.5 18q27 0 43.5 -18.5t16.5 -44.5q0 -25 -16.5 -42.5t-43.5 -17.5q-25 0 -42 17.5t-17 42.5zM227 0v1047h74v-1047h-74z" />
<glyph unicode="j" horiz-adv-x="540" d="M-27 -373q131 10 193.5 70.5t62.5 198.5v1151h74v-1147q0 -96 -23.5 -157.5t-64.5 -99.5t-94 -55.5t-111 -23.5zM205 1356q0 27 17.5 45t41.5 18q27 0 43.5 -18.5t16.5 -44.5q0 -25 -16.5 -42.5t-43.5 -17.5q-25 0 -42 17.5t-17 42.5z" />
<glyph unicode="k" horiz-adv-x="1050" d="M221 0v1442l74 37v-922l446 490h93l-263 -287l392 -760h-84l-361 702l-223 -237v-465h-74z" />
<glyph unicode="l" horiz-adv-x="516" d="M221 0v1442l74 37v-1479h-74z" />
<glyph unicode="m" horiz-adv-x="1730" d="M221 0v1047h74v-173q47 102 125 149.5t168 47.5q104 0 183 -60.5t106 -195.5q41 127 127 191.5t188 64.5q152 0 240 -94t88 -258v-719h-74v657q0 57 -8 118t-36 111t-79 82.5t-137 32.5q-66 0 -118 -27.5t-88 -74.5t-54.5 -109.5t-18.5 -132.5v-657h-73v657 q0 57 -9.5 118t-36 111t-78 82.5t-132.5 32.5q-72 0 -125.5 -26.5t-88 -74.5t-52 -113.5t-17.5 -143.5v-643h-74z" />
<glyph unicode="n" horiz-adv-x="1150" d="M221 0v1047h74v-189q20 57 56 98t78 67t88 37t87 11q166 0 251 -105.5t85 -326.5v-639h-74v653q0 190 -73.5 269t-194.5 79q-66 0 -121 -20t-95 -66.5t-63.5 -121t-23.5 -185.5v-608h-74z" />
<glyph unicode="o" horiz-adv-x="1126" d="M150 522q0 129 29.5 230.5t83.5 172t131 108.5t169 38q186 0 300 -142.5t114 -404.5q0 -129 -29.5 -231.5t-84 -173t-131.5 -107.5t-169 -37q-186 0 -299.5 142.5t-113.5 404.5zM229 522q0 -223 85 -348t249 -125q160 0 247 125t87 350q0 223 -85 348t-249 125 t-249 -121.5t-85 -353.5z" />
<glyph unicode="p" horiz-adv-x="1163" d="M221 -416v1463h74v-152q109 176 321 176q92 0 166 -39t125 -110.5t79 -173t28 -224.5q0 -268 -114 -408.5t-300 -140.5q-98 0 -177 50.5t-128 146.5v-551zM295 274q51 -104 130 -164.5t175 -60.5q160 0 247 123t87 352q0 106 -22.5 194.5t-65.5 150t-105.5 95 t-140.5 33.5q-96 0 -177 -54t-128 -146v-523z" />
<glyph unicode="q" horiz-adv-x="1163" d="M150 514q0 123 27.5 225.5t78.5 176t125 114.5t166 41q213 0 321 -176v152h74v-1420l-74 -37v582q-45 -92 -126 -144.5t-179 -52.5q-186 0 -299.5 135.5t-113.5 403.5zM229 514q0 -229 87 -347t247 -118q96 0 175 60.5t130 164.5v523q-47 92 -128 146t-177 54 q-78 0 -140.5 -34.5t-105.5 -99t-65.5 -153.5t-22.5 -196z" />
<glyph unicode="r" horiz-adv-x="798" d="M221 0v1047h74v-224q49 129 132 188.5t175 59.5q51 0 86 -13.5t53 -29.5l-12 -74q-20 12 -55 23.5t-82 11.5t-99.5 -21.5t-96.5 -69.5t-72.5 -127t-28.5 -191v-580h-74z" />
<glyph unicode="s" horiz-adv-x="956" d="M160 813q0 111 81 184.5t226 73.5q88 0 167 -35t134 -94l-55 -47q-43 41 -103.5 73.5t-144.5 32.5q-111 0 -170 -51t-59 -137q0 -51 20 -86t56 -61.5t82 -47t98 -40.5q68 -27 125 -54.5t99 -64.5t66.5 -88.5t24.5 -124.5q0 -121 -80 -196t-233 -75q-109 0 -191 46.5 t-139 111.5l57 49q47 -53 116 -95t155 -42q111 0 175 49t64 152q0 55 -24.5 96t-64.5 74t-91 57.5t-107 44.5q-129 47 -206.5 112.5t-77.5 182.5z" />
<glyph unicode="t" horiz-adv-x="759" d="M98 979v68h178v395l74 37v-432h266v-68h-266v-756q0 -82 24.5 -129t102.5 -47q47 0 87 16.5t67 32.5l-8 -78q-33 -20 -75 -31.5t-79 -11.5q-109 0 -151 68t-42 170v766h-178z" />
<glyph unicode="u" horiz-adv-x="1150" d="M211 408v639h74v-656q0 -190 73.5 -269t194.5 -79q63 0 119.5 20.5t96.5 67.5t63.5 122t23.5 185v609h74v-1047h-74v176q-27 -57 -62.5 -96t-75.5 -61.5t-84 -33t-85 -10.5q-166 0 -252 105.5t-86 327.5z" />
<glyph unicode="v" horiz-adv-x="1036" d="M119 1047h74l325 -908l326 908h74l-373 -1047h-53z" />
<glyph unicode="w" horiz-adv-x="1449" d="M119 1047h74l225 -908l280 908h54l280 -908l225 908h74l-266 -1047h-53l-287 907l-287 -907h-53z" />
<glyph unicode="x" horiz-adv-x="1019" d="M119 0l350 545l-322 502h80l283 -439l283 439h79l-323 -502l352 -545h-80l-311 483l-311 -483h-80z" />
<glyph unicode="y" horiz-adv-x="1054" d="M109 1047h73l340 -926l340 926h74l-533 -1444h-73l155 422z" />
<glyph unicode="z" horiz-adv-x="1034" d="M150 0v45l626 934h-586v68h684v-43l-628 -936h626v-68h-722z" />
<glyph unicode="{" horiz-adv-x="786" d="M139 557v80h8q86 0 138.5 56.5t52.5 168.5v123q0 236 71.5 352.5t243.5 120.5v-65q-121 -4 -178 -86t-57 -230v-168q0 -90 -15.5 -148.5t-44 -93t-70.5 -50t-95 -19.5v-4q53 -4 95 -17.5t70.5 -46t44 -92t15.5 -155.5v-168q0 -147 57 -229.5t178 -86.5v-65 q-172 4 -243.5 120.5t-71.5 352.5v125q0 111 -52.5 168t-138.5 57h-8z" />
<glyph unicode="|" horiz-adv-x="565" d="M246 -420v2069h73v-2069h-73z" />
<glyph unicode="}" horiz-adv-x="786" d="M133 -201q121 4 178.5 86t57.5 230v168q0 90 15 148t44 93t71 50.5t95 19.5v4q-53 4 -95 17.5t-71 46t-44 92t-15 155.5v168q0 147 -57.5 229.5t-178.5 86.5v65q172 -4 244 -120.5t72 -352.5v-125q0 -111 52 -168t138 -57h8v-80h-8q-86 0 -138 -56.5t-52 -168.5v-123 q0 -236 -72 -352.5t-244 -120.5v65z" />
<glyph unicode="~" horiz-adv-x="1363" d="M205 567q0 49 14 97.5t44 86t75 60.5t108 23q72 0 132.5 -30t116 -67t110.5 -66.5t117 -29.5q74 0 115.5 51t45.5 142h76q0 -49 -14.5 -97.5t-43 -86.5t-74.5 -60.5t-109 -22.5q-72 0 -132.5 30t-116 66.5t-110.5 66.5t-117 30q-74 0 -115.5 -50.5t-45.5 -142.5h-76z" />
<glyph unicode="&#xa1;" horiz-adv-x="565" d="M223 1012q0 25 16.5 42t43.5 17q25 0 42 -17.5t17 -41.5q0 -27 -17.5 -45.5t-41.5 -18.5q-27 0 -43.5 18.5t-16.5 45.5zM244 106l28 547h21l29 -547v-516h-78v516z" />
<glyph unicode="&#xa2;" horiz-adv-x="1058" d="M174 713q0 240 89 382t249 162v201h74v-196q98 -6 173 -62.5t111 -157.5l-73 -28q-29 84 -90.5 128t-141.5 44q-156 0 -233.5 -120t-77.5 -353q0 -225 81 -348t216 -123q94 0 163.5 51t96.5 139l74 -26q-33 -104 -111 -166t-188 -72v-193h-74v193q-156 16 -247 156.5 t-91 388.5z" />
<glyph unicode="&#xa3;" horiz-adv-x="1249" d="M221 0v82q121 106 165 211.5t44 218.5q0 33 -4 64.5t-10 60.5h-195v68h176q-14 49 -32.5 95t-34 92t-25.5 91t-10 94q0 74 25.5 142.5t78 122t131 85t187.5 31.5q113 0 204 -29.5t156 -80.5l-30 -68q-47 41 -127 73.5t-203 32.5q-92 0 -156.5 -27.5t-106.5 -70.5 t-61.5 -98t-19.5 -111q0 -49 11 -94t27.5 -91t35 -93t32.5 -96h344v-68h-327q12 -53 12 -109q0 -145 -57.5 -259.5t-159.5 -200.5h819v-68h-889z" />
<glyph unicode="&#xa4;" horiz-adv-x="1312" d="M143 227l148 146q-86 131 -86 309t86 309l-148 146l60 57l143 -145q137 109 309 108q172 0 310 -108l143 145l59 -57l-147 -146q86 -131 86 -309t-86 -309l147 -146l-59 -57l-143 145q-138 -108 -310 -108t-309 108l-143 -145zM285 682q0 -88 26.5 -160.5t74.5 -126 t116.5 -83t152.5 -29.5t153 29.5t117 83t74.5 126t26.5 160.5t-26.5 160.5t-74.5 126t-117 83t-153 29.5t-152.5 -29.5t-116.5 -83t-74.5 -126t-26.5 -160.5z" />
<glyph unicode="&#xa5;" horiz-adv-x="1155" d="M74 1434h80l424 -783l423 783h80l-436 -801h316v-68h-347v-246h347v-67h-347v-252h-73v252h-371v67h371v246h-371v68h340z" />
<glyph unicode="&#xa6;" horiz-adv-x="565" d="M246 -246v666h73v-666h-73zM246 805v670h73v-670h-73z" />
<glyph unicode="&#xa7;" horiz-adv-x="1101" d="M170 -100l57 53q20 -18 49 -41t67 -41t87 -30.5t111 -12.5q66 0 123 12.5t99 40t65.5 73.5t23.5 114q0 74 -36 122t-93 83.5t-129 62t-143 55.5q-61 25 -110.5 48.5t-84.5 54t-54.5 69.5t-19.5 94q0 92 62.5 151.5t154.5 76.5q-121 49 -169 124.5t-48 164.5q0 68 29 120 t77 88.5t112.5 56t136.5 19.5q63 0 116.5 -12t95.5 -30.5t73.5 -41t54.5 -43.5l-60 -53q-37 33 -103.5 69.5t-176.5 36.5q-55 0 -105.5 -13t-88.5 -39.5t-59.5 -67.5t-21.5 -97q0 -57 20.5 -96t65.5 -70.5t114.5 -60.5t166.5 -66q57 -23 112.5 -48t97.5 -60t67.5 -82 t25.5 -113t-42 -131t-132 -94q94 -47 134 -121.5t40 -156.5t-29 -141.5t-81 -97.5t-123.5 -56.5t-157.5 -18.5q-133 0 -226.5 46t-144.5 100zM262 657q0 -66 59.5 -110.5t151.5 -79.5q68 -25 126 -46.5t93 -37.5q68 25 114 70.5t46 111.5q0 55 -29.5 96t-80 73t-119 57.5 t-146.5 52.5q-100 -16 -157.5 -64.5t-57.5 -122.5z" />
<glyph unicode="&#xa8;" horiz-adv-x="698" d="M123 1300q0 27 17.5 45.5t41.5 18.5q27 0 43.5 -18.5t16.5 -45.5q0 -25 -16.5 -42t-43.5 -17q-25 0 -42 17.5t-17 41.5zM463 1300q0 27 17.5 45.5t41.5 18.5q27 0 43.5 -18.5t16.5 -45.5q0 -25 -16.5 -42t-43.5 -17q-25 0 -42 17.5t-17 41.5z" />
<glyph unicode="&#xa9;" horiz-adv-x="1802" d="M160 717q0 158 56 293t156.5 235.5t235.5 156.5t293 56t293 -56t235.5 -156.5t156.5 -236t56 -292.5q0 -158 -56 -293t-156.5 -235.5t-235.5 -157t-293 -56.5t-293 56.5t-235.5 157t-156.5 235.5t-56 293zM233 717q0 -143 50.5 -266t139.5 -213.5t211 -141.5t267 -51 q143 0 266 51t212 141.5t139.5 213t50.5 266.5q0 143 -50.5 266t-139.5 213t-212 141.5t-266 51.5q-145 0 -267 -51.5t-211 -141.5t-139.5 -213t-50.5 -266zM571 727q0 203 87 325t253 122q106 0 175 -47.5t106 -133.5l-70 -28q-27 57 -79 97t-132 40q-131 0 -196.5 -100.5 t-65.5 -274.5q0 -186 67.5 -279.5t196.5 -93.5q76 0 138.5 35t91.5 121l61 -25q-35 -98 -110 -150t-181 -52q-168 0 -255 113.5t-87 330.5z" />
<glyph unicode="&#xaa;" horiz-adv-x="937" d="M129 836q0 74 27.5 127t73.5 88.5t104.5 52t118.5 16.5q68 0 131 -17.5t110 -43.5v76q0 143 -60.5 198.5t-180.5 55.5q-70 0 -128.5 -20.5t-103.5 -49.5l-20 65q47 31 116.5 52.5t135.5 21.5q74 0 132 -15.5t99 -50t62.5 -95t21.5 -148.5v-569h-74v86q-49 -43 -121.5 -75 t-150.5 -32q-131 0 -212 70.5t-81 206.5zM209 836q0 -109 61.5 -159t151.5 -50q92 0 160.5 34.5t111.5 75.5v248q-41 27 -107.5 47.5t-133.5 20.5q-43 0 -87 -12.5t-79 -38t-56.5 -67.5t-21.5 -99z" />
<glyph unicode="&#xab;" horiz-adv-x="964" d="M115 524l311 523h86l-311 -523l311 -524h-86zM483 524l312 523h86l-312 -523l312 -524h-86z" />
<glyph unicode="&#xac;" horiz-adv-x="1363" d="M201 874v74h962v-588h-73v514h-889z" />
<glyph unicode="&#xad;" horiz-adv-x="837" d="M190 573v74h457v-74h-457z" />
<glyph unicode="&#xae;" horiz-adv-x="1802" d="M160 717q0 158 56 293t156.5 235.5t235.5 156.5t293 56t293 -56t235.5 -156.5t156.5 -236t56 -292.5q0 -158 -56 -293t-156.5 -235.5t-235.5 -157t-293 -56.5t-293 56.5t-235.5 157t-156.5 235.5t-56 293zM233 717q0 -143 50.5 -266t139.5 -213.5t211 -141.5t267 -51 q143 0 266 51t212 141.5t139.5 213t50.5 266.5q0 143 -50.5 266t-139.5 213t-212 141.5t-266 51.5q-145 0 -267 -51.5t-211 -141.5t-139.5 -213t-50.5 -266zM621 281v866h364q68 0 114 -24.5t74.5 -61.5t41 -81t12.5 -83q0 -92 -55.5 -160.5t-172.5 -79.5l215 -376h-86 l-208 372h-226v-372h-73zM694 727h273q51 0 85.5 14.5t56 38t31 54t9.5 63.5q0 31 -8 62.5t-28.5 57t-56.5 41t-89 15.5h-273v-346z" />
<glyph unicode="&#xaf;" horiz-adv-x="698" d="M14 1276v67h676v-67h-676z" />
<glyph unicode="&#xb0;" horiz-adv-x="831" d="M139 1262q0 59 21.5 109t58.5 87t87 57.5t110 20.5q57 0 108 -20.5t88 -57.5t58.5 -87t21.5 -109t-21.5 -109.5t-58.5 -87.5t-88 -57.5t-108 -20.5q-59 0 -109.5 20.5t-87.5 57.5t-58.5 87t-21.5 110zM209 1262q0 -88 57.5 -147.5t149.5 -59.5q90 0 148.5 59.5 t58.5 147.5q0 90 -58.5 148t-148.5 58q-92 0 -149.5 -58t-57.5 -148z" />
<glyph unicode="&#xb1;" horiz-adv-x="1363" d="M201 0v74h962v-74h-962zM201 795v73h442v377h74v-377h446v-73h-446v-377h-74v377h-442z" />
<glyph unicode="&#xb2;" horiz-adv-x="770" d="M106 909q0 76 24 134.5t60.5 104.5t86 82t102.5 68q86 51 130 103.5t44 138.5q0 31 -10.5 61.5t-32 55t-56 41t-81.5 16.5q-88 0 -133 -43t-66 -110l-68 26q23 82 90.5 141.5t176.5 59.5q115 0 186.5 -65.5t71.5 -182.5q0 -113 -54.5 -179.5t-162.5 -129.5 q-104 -59 -153.5 -114.5t-65.5 -123.5h432v-84h-521z" />
<glyph unicode="&#xb3;" horiz-adv-x="763" d="M86 1077l72 27q33 -68 82 -105.5t135 -37.5q88 0 144 45t56 129q0 78 -46 130t-134 52h-63v74h43q76 0 121 52t45 118t-40 110.5t-122 44.5q-72 0 -118 -35.5t-75 -95.5l-69 29q35 82 102.5 129t159.5 47q104 0 171.5 -59.5t67.5 -169.5q0 -61 -32.5 -119t-96.5 -82 q74 -16 119 -74.5t45 -150.5q0 -57 -22.5 -103.5t-60.5 -78t-88 -49t-107 -17.5q-111 0 -180.5 52t-108.5 138z" />
<glyph unicode="&#xb4;" horiz-adv-x="698" d="M203 1180l309 319h113l-346 -319h-76z" />
<glyph unicode="&#xb5;" horiz-adv-x="1150" d="M211 -410v1457h74v-656q0 -109 23.5 -176.5t61.5 -105t86 -52t97 -14.5q63 0 118.5 20.5t96.5 66.5t64.5 122t23.5 186v609h74v-1047h-74v176q-41 -94 -120 -147.5t-187 -53.5q-88 0 -155.5 31t-108.5 96v-473z" />
<glyph unicode="&#xb6;" horiz-adv-x="1245" d="M113 1006q0 74 22.5 144.5t72.5 125.5t133 89t206 34h463v-1585l-74 -37v1548h-219v-1647l-74 -34v960q-152 0 -253 37t-162.5 95.5t-88 130t-26.5 139.5zM193 1008q0 -57 22.5 -115.5t74.5 -107t138 -78t215 -29.5v647h-92q-102 0 -171 -26.5t-110 -71.5t-59 -101.5 t-18 -117.5z" />
<glyph unicode="&#xb7;" horiz-adv-x="434" d="M158 715q0 27 17.5 45t41.5 18q27 0 43 -18.5t16 -44.5q0 -25 -16 -42.5t-43 -17.5q-25 0 -42 17.5t-17 42.5z" />
<glyph unicode="&#xb8;" horiz-adv-x="698" d="M215 -422l51 37q16 -12 38 -23.5t54 -11.5q63 0 97 36t34 89t-36.5 88t-96.5 35q-45 0 -77 -16l-21 24l133 184h49l-82 -141q51 0 89 -15.5t63 -40t37 -55t12 -61.5q0 -78 -52.5 -132t-146.5 -54q-47 0 -83.5 15t-61.5 42z" />
<glyph unicode="&#xb9;" horiz-adv-x="421" d="M63 1593v45q78 4 106 37t38 99h49v-865h-78v684h-115z" />
<glyph unicode="&#xba;" horiz-adv-x="972" d="M127 1008q0 213 97.5 331.5t260.5 118.5q166 0 263.5 -118.5t97.5 -331.5q0 -217 -97.5 -334t-263.5 -117q-164 0 -261 117t-97 334zM207 1008q0 -180 75.5 -277.5t202.5 -97.5q129 0 205 97t76 278q0 178 -76 276t-205 98q-127 0 -202.5 -98t-75.5 -276z" />
<glyph unicode="&#xbb;" horiz-adv-x="964" d="M84 0l311 524l-311 523h86l311 -523l-311 -524h-86zM453 0l311 524l-311 523h86l311 -523l-311 -524h-86z" />
<glyph unicode="&#xbc;" horiz-adv-x="1392" d="M61 -25l979 1483h88l-978 -1483h-89zM83 1264v45q78 4 106 36.5t38 98.5h49v-864h-78v684h-115zM646 240v41l448 585h64v-553h114v-73h-114v-240h-78v240h-434zM754 313h326v424z" />
<glyph unicode="&#xbd;" horiz-adv-x="1492" d="M61 -25l979 1483h88l-978 -1483h-89zM83 1264v45q78 4 106 36.5t38 98.5h49v-864h-78v684h-115zM829 0q0 76 24 134.5t60.5 104.5t86 81.5t102.5 68.5q86 51 130 103.5t44 138.5q0 31 -10.5 61.5t-32 55t-56 41t-81.5 16.5q-88 0 -133 -43t-66 -111l-68 27 q23 82 90.5 141.5t176.5 59.5q115 0 186.5 -65.5t71.5 -182.5q0 -113 -54.5 -179.5t-162.5 -129.5q-104 -59 -153.5 -115.5t-65.5 -124.5h432v-82h-521z" />
<glyph unicode="&#xbe;" horiz-adv-x="1687" d="M90 745l72 27q33 -68 82 -105.5t135 -37.5q88 0 144.5 45t56.5 129q0 78 -46.5 130t-134.5 52h-63v74h43q76 0 121 52t45 118t-40 110.5t-122 44.5q-72 0 -118 -35.5t-74 -95.5l-70 29q35 82 102.5 129t159.5 47q104 0 172 -59.5t68 -169.5q0 -61 -33 -118.5t-96 -82.5 q74 -16 118.5 -74.5t44.5 -150.5q0 -57 -22.5 -103.5t-60 -78t-88 -49t-107.5 -17.5q-111 0 -180.5 52t-108.5 138zM354 -25l979 1483h88l-978 -1483h-89zM938 240v41l448 585h64v-553h114v-73h-114v-240h-78v240h-434zM1046 313h326v424z" />
<glyph unicode="&#xbf;" horiz-adv-x="1089" d="M139 -41q0 84 29 144.5t72 110.5t92 94t92 94.5t71.5 111.5t28.5 145v70h78v-70q0 -92 -28.5 -157.5t-71.5 -118.5t-92.5 -98t-92.5 -92.5t-71.5 -103.5t-28.5 -130q0 -61 20.5 -115.5t61.5 -94.5t100.5 -62.5t137.5 -22.5q264 0 340 248l69 -31q-45 -141 -152.5 -216 t-256.5 -75q-96 0 -170 29t-125.5 79t-77 117.5t-25.5 143.5zM504 1012q0 25 16.5 42t42.5 17q25 0 42.5 -17.5t17.5 -41.5q0 -27 -17.5 -45.5t-42.5 -18.5q-27 0 -43 18.5t-16 45.5z" />
<glyph unicode="&#xc0;" d="M166 0l491 1434h50l495 -1434h-72l-143 403h-608l-137 -403h-76zM397 465h572l-213 618q-4 12 -13.5 41t-20.5 63t-21.5 67.5t-16.5 56.5q-6 -23 -16.5 -57.5t-22.5 -69.5t-22.5 -62.5t-12.5 -38.5zM443 1888h112l310 -319h-76z" />
<glyph unicode="&#xc1;" d="M166 0l491 1434h50l495 -1434h-72l-143 403h-608l-137 -403h-76zM397 465h572l-213 618q-4 12 -13.5 41t-20.5 63t-21.5 67.5t-16.5 56.5q-6 -23 -16.5 -57.5t-22.5 -69.5t-22.5 -62.5t-12.5 -38.5zM496 1569l309 319h113l-346 -319h-76z" />
<glyph unicode="&#xc2;" d="M166 0l491 1434h50l495 -1434h-72l-143 403h-608l-137 -403h-76zM340 1569l309 319h66l309 -319h-76l-266 245l-266 -245h-76zM397 465h572l-213 618q-4 12 -13.5 41t-20.5 63t-21.5 67.5t-16.5 56.5q-6 -23 -16.5 -57.5t-22.5 -69.5t-22.5 -62.5t-12.5 -38.5z" />
<glyph unicode="&#xc3;" d="M166 0l491 1434h50l495 -1434h-72l-143 403h-608l-137 -403h-76zM344 1630q0 98 44 161.5t132 63.5q51 0 94.5 -25.5t84.5 -57t79.5 -57.5t81.5 -26q100 0 107 158h55q0 -98 -44 -161.5t-132 -63.5q-51 0 -94 25.5t-84 57.5t-80 57.5t-82 25.5q-100 0 -106 -158h-56z M397 465h572l-213 618q-4 12 -13.5 41t-20.5 63t-21.5 67.5t-16.5 56.5q-6 -23 -16.5 -57.5t-22.5 -69.5t-22.5 -62.5t-12.5 -38.5z" />
<glyph unicode="&#xc4;" d="M166 0l491 1434h50l495 -1434h-72l-143 403h-608l-137 -403h-76zM397 465h572l-213 618q-4 12 -13.5 41t-20.5 63t-21.5 67.5t-16.5 56.5q-6 -23 -16.5 -57.5t-22.5 -69.5t-22.5 -62.5t-12.5 -38.5zM453 1689q0 27 17.5 45.5t41.5 18.5q27 0 43.5 -18.5t16.5 -45.5 q0 -25 -16.5 -42t-43.5 -17q-25 0 -42 17.5t-17 41.5zM793 1689q0 27 17.5 45.5t41.5 18.5q27 0 43.5 -18.5t16.5 -45.5q0 -25 -16.5 -42t-43.5 -17q-25 0 -42 17.5t-17 41.5z" />
<glyph unicode="&#xc5;" d="M166 0l450 1309q-72 23 -119.5 80t-47.5 139q0 47 18 89t51 73.5t75 50t91 18.5t91 -18.5t75 -50t51.5 -73.5t18.5 -89q0 -78 -47.5 -137.5t-120.5 -81.5l450 -1309h-74l-141 403h-606l-141 -403h-74zM399 465h570l-285 833zM518 1528q0 -76 50 -121t116 -45q70 0 118 47 t48 119t-48 120t-118 48q-66 0 -116 -45t-50 -123z" />
<glyph unicode="&#xc6;" horiz-adv-x="1759" d="M16 0l828 1434h686v-68h-615v-590h396v-67h-396v-641h660v-68h-733v403h-510l-232 -403h-84zM365 465h477v833z" />
<glyph unicode="&#xc7;" horiz-adv-x="1331" d="M184 717q0 143 34 276t101.5 236.5t172 166t245.5 62.5q90 0 157 -19.5t114 -52t80.5 -74.5t58.5 -85l-64 -37q-23 37 -50 71.5t-67 62.5t-96.5 44t-132.5 16q-121 0 -210 -56t-148.5 -148.5t-88 -213t-28.5 -249.5q0 -127 26.5 -248t83 -214t147.5 -149.5t220 -56.5 q72 0 130.5 18.5t102.5 48t75.5 68.5t52.5 80l67 -26q-23 -47 -58.5 -93.5t-85.5 -83t-114.5 -60.5t-146.5 -26l-55 -96q51 0 89 -15.5t62.5 -40t36.5 -55t12 -61.5q0 -78 -52 -132t-146 -54q-47 0 -84 15t-62 42l51 37q16 -12 38 -23.5t55 -11.5q63 0 97 36t34 89t-37 88 t-96 35q-45 0 -78 -16l-21 24l101 141q-139 6 -238.5 72t-163 168t-92.5 232.5t-29 267.5z" />
<glyph unicode="&#xc8;" horiz-adv-x="1212" d="M236 0v1434h747v-68h-674v-590h455v-67h-455v-641h719v-68h-792zM283 1888h112l310 -319h-76z" />
<glyph unicode="&#xc9;" horiz-adv-x="1212" d="M236 0v1434h747v-68h-674v-590h455v-67h-455v-641h719v-68h-792zM432 1569l309 319h113l-346 -319h-76z" />
<glyph unicode="&#xca;" horiz-adv-x="1212" d="M236 0v1434h747v-68h-674v-590h455v-67h-455v-641h719v-68h-792zM268 1569l309 319h66l309 -319h-76l-266 245l-266 -245h-76z" />
<glyph unicode="&#xcb;" horiz-adv-x="1212" d="M236 0v1434h747v-68h-674v-590h455v-67h-455v-641h719v-68h-792zM328 1689q0 27 17.5 45.5t41.5 18.5q27 0 43.5 -18.5t16.5 -45.5q0 -25 -16.5 -42t-43.5 -17q-25 0 -42 17.5t-17 41.5zM668 1689q0 27 17.5 45.5t41.5 18.5q27 0 43.5 -18.5t16.5 -45.5q0 -25 -16.5 -42 t-43.5 -17q-25 0 -42 17.5t-17 41.5z" />
<glyph unicode="&#xcc;" horiz-adv-x="544" d="M37 1888h112l310 -319h-76zM236 0v1434h73v-1434h-73z" />
<glyph unicode="&#xcd;" horiz-adv-x="544" d="M80 1569l309 319h113l-346 -319h-76zM236 0v1434h73v-1434h-73z" />
<glyph unicode="&#xce;" horiz-adv-x="544" d="M-72 1569l309 319h66l309 -319h-76l-266 245l-266 -245h-76zM236 0v1434h73v-1434h-73z" />
<glyph unicode="&#xcf;" horiz-adv-x="544" d="M41 1689q0 27 17.5 45.5t41.5 18.5q27 0 43.5 -18.5t16.5 -45.5q0 -25 -16.5 -42t-43.5 -17q-25 0 -42 17.5t-17 41.5zM236 0v1434h73v-1434h-73zM381 1689q0 27 17.5 45.5t41.5 18.5q27 0 43.5 -18.5t16.5 -45.5q0 -25 -16.5 -42t-43.5 -17q-25 0 -42 17.5t-17 41.5z " />
<glyph unicode="&#xd0;" horiz-adv-x="1382" d="M92 678v74h144v682h327q178 0 300 -62.5t196 -164t106.5 -229.5t32.5 -261q0 -123 -29.5 -251t-103.5 -231.5t-198 -169t-312 -65.5h-319v678h-144zM309 74h246q166 0 274.5 59.5t173 151.5t90 206.5t25.5 225.5q0 119 -28.5 234.5t-93 205.5t-171 146.5t-262.5 56.5 h-254v-608h359v-74h-359v-604z" />
<glyph unicode="&#xd1;" horiz-adv-x="1415" d="M236 0v1434h71l799 -1293v1293h74v-1434h-72l-799 1292v-1292h-73zM368 1630q0 98 44 161.5t132 63.5q51 0 94.5 -25.5t84.5 -57t79.5 -57.5t81.5 -26q100 0 107 158h55q0 -98 -44 -161.5t-132 -63.5q-51 0 -94 25.5t-84 57.5t-80 57.5t-82 25.5q-100 0 -106 -158h-56z " />
<glyph unicode="&#xd2;" horiz-adv-x="1486" d="M184 717q0 133 30 265t96.5 238.5t173 172t259.5 65.5q154 0 260.5 -65.5t173 -172t96.5 -238.5t30 -265t-30 -265.5t-96.5 -239t-173 -172t-260.5 -65.5t-260 65.5t-172.5 172t-96.5 239t-30 265.5zM264 717q0 -127 24.5 -248t81 -214t148.5 -149.5t225 -56.5 t225.5 60.5t149 156.5t81 215t24.5 236q0 127 -24.5 247.5t-81 214t-148.5 149.5t-226 56q-133 0 -225 -60t-148.5 -156.5t-81 -215t-24.5 -235.5zM494 1888h112l310 -319h-76z" />
<glyph unicode="&#xd3;" horiz-adv-x="1486" d="M184 717q0 133 30 265t96.5 238.5t173 172t259.5 65.5q154 0 260.5 -65.5t173 -172t96.5 -238.5t30 -265t-30 -265.5t-96.5 -239t-173 -172t-260.5 -65.5t-260 65.5t-172.5 172t-96.5 239t-30 265.5zM264 717q0 -127 24.5 -248t81 -214t148.5 -149.5t225 -56.5 t225.5 60.5t149 156.5t81 215t24.5 236q0 127 -24.5 247.5t-81 214t-148.5 149.5t-226 56q-133 0 -225 -60t-148.5 -156.5t-81 -215t-24.5 -235.5zM598 1569l309 319h113l-346 -319h-76z" />
<glyph unicode="&#xd4;" horiz-adv-x="1486" d="M184 717q0 133 30 265t96.5 238.5t173 172t259.5 65.5q154 0 260.5 -65.5t173 -172t96.5 -238.5t30 -265t-30 -265.5t-96.5 -239t-173 -172t-260.5 -65.5t-260 65.5t-172.5 172t-96.5 239t-30 265.5zM264 717q0 -127 24.5 -248t81 -214t148.5 -149.5t225 -56.5 t225.5 60.5t149 156.5t81 215t24.5 236q0 127 -24.5 247.5t-81 214t-148.5 149.5t-226 56q-133 0 -225 -60t-148.5 -156.5t-81 -215t-24.5 -235.5zM426 1569l309 319h66l309 -319h-76l-266 245l-266 -245h-76z" />
<glyph unicode="&#xd5;" horiz-adv-x="1486" d="M184 717q0 133 30 265t96.5 238.5t173 172t259.5 65.5q154 0 260.5 -65.5t173 -172t96.5 -238.5t30 -265t-30 -265.5t-96.5 -239t-173 -172t-260.5 -65.5t-260 65.5t-172.5 172t-96.5 239t-30 265.5zM264 717q0 -127 24.5 -248t81 -214t148.5 -149.5t225 -56.5 t225.5 60.5t149 156.5t81 215t24.5 236q0 127 -24.5 247.5t-81 214t-148.5 149.5t-226 56q-133 0 -225 -60t-148.5 -156.5t-81 -215t-24.5 -235.5zM405 1630q0 98 44 161.5t132 63.5q51 0 94.5 -25.5t84.5 -57t79.5 -57.5t81.5 -26q100 0 107 158h55q0 -98 -44 -161.5 t-132 -63.5q-51 0 -94 25.5t-84 57.5t-80 57.5t-82 25.5q-100 0 -106 -158h-56z" />
<glyph unicode="&#xd6;" horiz-adv-x="1486" d="M184 717q0 133 30 265t96.5 238.5t173 172t259.5 65.5q154 0 260.5 -65.5t173 -172t96.5 -238.5t30 -265t-30 -265.5t-96.5 -239t-173 -172t-260.5 -65.5t-260 65.5t-172.5 172t-96.5 239t-30 265.5zM264 717q0 -127 24.5 -248t81 -214t148.5 -149.5t225 -56.5 t225.5 60.5t149 156.5t81 215t24.5 236q0 127 -24.5 247.5t-81 214t-148.5 149.5t-226 56q-133 0 -225 -60t-148.5 -156.5t-81 -215t-24.5 -235.5zM514 1689q0 27 17.5 45.5t41.5 18.5q27 0 43.5 -18.5t16.5 -45.5q0 -25 -16.5 -42t-43.5 -17q-25 0 -42 17.5t-17 41.5z M854 1689q0 27 17.5 45.5t41.5 18.5q27 0 43.5 -18.5t16.5 -45.5q0 -25 -16.5 -42t-43.5 -17q-25 0 -42 17.5t-17 41.5z" />
<glyph unicode="&#xd7;" horiz-adv-x="1363" d="M244 309l389 389l-389 389l51 50l387 -387l387 387l51 -50l-389 -389l389 -389l-51 -49l-387 387l-387 -387z" />
<glyph unicode="&#xd8;" horiz-adv-x="1486" d="M184 717q0 133 30 265t96.5 238.5t173 172t259.5 65.5q117 0 204 -38t153 -103l96 141h84l-131 -196q82 -111 118 -254.5t36 -290.5q0 -133 -30 -265.5t-96.5 -239t-173 -172t-260.5 -65.5q-117 0 -204.5 38t-153.5 104l-94 -142h-84l131 197q-82 109 -118 253t-36 292z M262 717q0 -135 26.5 -260t92.5 -221l678 1017q-55 59 -133 95t-183 36q-133 0 -225 -60t-149.5 -156.5t-82 -215t-24.5 -235.5zM426 178q55 -59 134 -94t183 -35q133 0 225.5 60.5t149 156.5t82 215t25.5 236q0 135 -28 260t-91 219z" />
<glyph unicode="&#xd9;" d="M227 510v924h74v-920q0 -141 32 -232.5t84 -143.5t121.5 -72.5t145.5 -20.5t145.5 20.5t122 72.5t84 143.5t31.5 232.5v920h74v-924q0 -143 -32 -244.5t-90 -166t-143.5 -94.5t-191.5 -30t-191 30t-143.5 94.5t-90.5 166t-32 244.5zM451 1888h112l310 -319h-76z" />
<glyph unicode="&#xda;" d="M227 510v924h74v-920q0 -141 32 -232.5t84 -143.5t121.5 -72.5t145.5 -20.5t145.5 20.5t122 72.5t84 143.5t31.5 232.5v920h74v-924q0 -143 -32 -244.5t-90 -166t-143.5 -94.5t-191.5 -30t-191 30t-143.5 94.5t-90.5 166t-32 244.5zM535 1569l309 319h113l-346 -319h-76z " />
<glyph unicode="&#xdb;" d="M227 510v924h74v-920q0 -141 32 -232.5t84 -143.5t121.5 -72.5t145.5 -20.5t145.5 20.5t122 72.5t84 143.5t31.5 232.5v920h74v-924q0 -143 -32 -244.5t-90 -166t-143.5 -94.5t-191.5 -30t-191 30t-143.5 94.5t-90.5 166t-32 244.5zM342 1569l309 319h66l309 -319h-76 l-266 245l-266 -245h-76z" />
<glyph unicode="&#xdc;" d="M227 510v924h74v-920q0 -141 32 -232.5t84 -143.5t121.5 -72.5t145.5 -20.5t145.5 20.5t122 72.5t84 143.5t31.5 232.5v920h74v-924q0 -143 -32 -244.5t-90 -166t-143.5 -94.5t-191.5 -30t-191 30t-143.5 94.5t-90.5 166t-32 244.5zM455 1689q0 27 17.5 45.5t41.5 18.5 q27 0 43.5 -18.5t16.5 -45.5q0 -25 -16.5 -42t-43.5 -17q-25 0 -42 17.5t-17 41.5zM795 1689q0 27 17.5 45.5t41.5 18.5q27 0 43.5 -18.5t16.5 -45.5q0 -25 -16.5 -42t-43.5 -17q-25 0 -42 17.5t-17 41.5z" />
<glyph unicode="&#xdd;" horiz-adv-x="1249" d="M121 1434h80l424 -791l424 791h79l-466 -867v-567h-74v567zM473 1569l309 319h113l-346 -319h-76z" />
<glyph unicode="&#xde;" horiz-adv-x="1247" d="M236 0v1434h73v-285h373q129 0 215 -36t139.5 -95.5t76 -135t22.5 -155.5q0 -72 -25 -146.5t-78 -135t-139 -99.5t-211 -39h-373v-307h-73zM309 381h375q102 0 173 31.5t115 82t63.5 112t19.5 120.5q0 63 -18.5 125.5t-61.5 112t-113.5 80t-177.5 30.5h-375v-694z" />
<glyph unicode="&#xdf;" horiz-adv-x="1171" d="M205 -397v1392q0 127 32.5 215t86 143.5t121 80t135.5 24.5q82 0 149.5 -26.5t115.5 -73.5t73.5 -114.5t25.5 -149.5q0 -45 -10 -94.5t-38 -93.5t-74 -76.5t-115 -47.5q80 -12 138 -49t97 -89t57.5 -113.5t18.5 -122.5q0 -104 -31 -185.5t-83 -135.5t-123.5 -83 t-153.5 -29q-39 0 -70 5.5t-51 13.5l37 63q33 -8 84 -8q59 0 115.5 21.5t99.5 65.5t69.5 111.5t26.5 160.5q0 63 -19.5 123.5t-62.5 107.5t-113.5 75.5t-173.5 28.5h-8v68h8q133 0 214 67.5t81 215.5q0 137 -70.5 213.5t-213.5 76.5q-63 0 -117.5 -22.5t-95.5 -69.5 t-64.5 -120.5t-23.5 -176.5v-1355z" />
<glyph unicode="&#xe0;" horiz-adv-x="1079" d="M160 315q0 86 28.5 148.5t76.5 103.5t113.5 60.5t139.5 19.5q84 0 160 -26.5t147 -73.5v155q0 92 -21.5 151.5t-56 92.5t-82 45.5t-96.5 12.5q-86 0 -170 -32t-145 -69l-23 64q59 35 147.5 69.5t196.5 34.5q55 0 112.5 -14.5t105 -51t77 -102t29.5 -170.5v-733h-74v164 q-61 -86 -148 -137.5t-183 -51.5q-154 0 -244 87.5t-90 252.5zM240 315q0 -123 68.5 -197.5t185.5 -74.5q57 0 106 18.5t90 48t75 66.5t60 74v227q-59 41 -138 72t-169 31q-53 0 -103 -16.5t-89 -48.5t-62.5 -82t-23.5 -118zM301 1499h112l310 -319h-76z" />
<glyph unicode="&#xe1;" horiz-adv-x="1079" d="M160 315q0 86 28.5 148.5t76.5 103.5t113.5 60.5t139.5 19.5q84 0 160 -26.5t147 -73.5v155q0 92 -21.5 151.5t-56 92.5t-82 45.5t-96.5 12.5q-86 0 -170 -32t-145 -69l-23 64q59 35 147.5 69.5t196.5 34.5q55 0 112.5 -14.5t105 -51t77 -102t29.5 -170.5v-733h-74v164 q-61 -86 -148 -137.5t-183 -51.5q-154 0 -244 87.5t-90 252.5zM240 315q0 -123 68.5 -197.5t185.5 -74.5q57 0 106 18.5t90 48t75 66.5t60 74v227q-59 41 -138 72t-169 31q-53 0 -103 -16.5t-89 -48.5t-62.5 -82t-23.5 -118zM449 1180l309 319h113l-346 -319h-76z" />
<glyph unicode="&#xe2;" horiz-adv-x="1079" d="M160 315q0 86 28.5 148.5t76.5 103.5t113.5 60.5t139.5 19.5q84 0 160 -26.5t147 -73.5v155q0 92 -21.5 151.5t-56 92.5t-82 45.5t-96.5 12.5q-86 0 -170 -32t-145 -69l-23 64q59 35 147.5 69.5t196.5 34.5q55 0 112.5 -14.5t105 -51t77 -102t29.5 -170.5v-733h-74v164 q-61 -86 -148 -137.5t-183 -51.5q-154 0 -244 87.5t-90 252.5zM229 1180l309 319h66l309 -319h-76l-266 245l-266 -245h-76zM240 315q0 -123 68.5 -197.5t185.5 -74.5q57 0 106 18.5t90 48t75 66.5t60 74v227q-59 41 -138 72t-169 31q-53 0 -103 -16.5t-89 -48.5t-62.5 -82 t-23.5 -118z" />
<glyph unicode="&#xe3;" horiz-adv-x="1079" d="M160 315q0 86 28.5 148.5t76.5 103.5t113.5 60.5t139.5 19.5q84 0 160 -26.5t147 -73.5v155q0 92 -21.5 151.5t-56 92.5t-82 45.5t-96.5 12.5q-86 0 -170 -32t-145 -69l-23 64q59 35 147.5 69.5t196.5 34.5q55 0 112.5 -14.5t105 -51t77 -102t29.5 -170.5v-733h-74v164 q-61 -86 -148 -137.5t-183 -51.5q-154 0 -244 87.5t-90 252.5zM233 1241q0 98 44 161.5t132 63.5q51 0 94.5 -25.5t84.5 -57t79.5 -57.5t81.5 -26q100 0 107 158h55q0 -98 -44 -161.5t-132 -63.5q-51 0 -94 25.5t-84 57.5t-80 57.5t-82 25.5q-100 0 -106 -158h-56zM240 315 q0 -123 68.5 -197.5t185.5 -74.5q57 0 106 18.5t90 48t75 66.5t60 74v227q-59 41 -138 72t-169 31q-53 0 -103 -16.5t-89 -48.5t-62.5 -82t-23.5 -118z" />
<glyph unicode="&#xe4;" horiz-adv-x="1079" d="M160 315q0 86 28.5 148.5t76.5 103.5t113.5 60.5t139.5 19.5q84 0 160 -26.5t147 -73.5v155q0 92 -21.5 151.5t-56 92.5t-82 45.5t-96.5 12.5q-86 0 -170 -32t-145 -69l-23 64q59 35 147.5 69.5t196.5 34.5q55 0 112.5 -14.5t105 -51t77 -102t29.5 -170.5v-733h-74v164 q-61 -86 -148 -137.5t-183 -51.5q-154 0 -244 87.5t-90 252.5zM240 315q0 -123 68.5 -197.5t185.5 -74.5q57 0 106 18.5t90 48t75 66.5t60 74v227q-59 41 -138 72t-169 31q-53 0 -103 -16.5t-89 -48.5t-62.5 -82t-23.5 -118zM342 1300q0 27 17.5 45.5t41.5 18.5 q27 0 43.5 -18.5t16.5 -45.5q0 -25 -16.5 -42t-43.5 -17q-25 0 -42 17.5t-17 41.5zM682 1300q0 27 17.5 45.5t41.5 18.5q27 0 43.5 -18.5t16.5 -45.5q0 -25 -16.5 -42t-43.5 -17q-25 0 -42 17.5t-17 41.5z" />
<glyph unicode="&#xe5;" horiz-adv-x="1079" d="M160 315q0 86 28.5 148.5t76.5 103.5t113.5 60.5t139.5 19.5q84 0 160 -26.5t147 -73.5v155q0 92 -21.5 151.5t-56 92.5t-82 45.5t-96.5 12.5q-86 0 -170 -32t-145 -69l-23 64q59 35 147.5 69.5t196.5 34.5q55 0 112.5 -14.5t105 -51t77 -102t29.5 -170.5v-733h-74v164 q-61 -86 -148 -137.5t-183 -51.5q-154 0 -244 87.5t-90 252.5zM240 315q0 -123 68.5 -197.5t185.5 -74.5q57 0 106 18.5t90 48t75 66.5t60 74v227q-59 41 -138 72t-169 31q-53 0 -103 -16.5t-89 -48.5t-62.5 -82t-23.5 -118zM346 1407q0 47 18.5 89t51 74t74.5 50.5t91 18.5 t91 -18.5t75 -50.5t51.5 -74t18.5 -89t-18.5 -89t-51.5 -72.5t-75 -49t-91 -18.5t-91 18.5t-74.5 49t-51 72.5t-18.5 89zM415 1407q0 -35 13.5 -65.5t36 -53t52 -35t62.5 -12.5q70 0 119 47.5t49 118.5q0 72 -49 120t-119 48q-66 0 -115 -48t-49 -120z" />
<glyph unicode="&#xe6;" horiz-adv-x="1753" d="M160 315q0 86 28.5 148.5t76.5 103.5t113.5 60.5t139.5 19.5q84 0 160 -26.5t147 -73.5v155q0 92 -21.5 151.5t-56 92.5t-82 45.5t-96.5 12.5q-86 0 -170 -32t-145 -69l-23 64q59 35 147.5 69.5t196.5 34.5q47 0 97.5 -10t95.5 -38t77 -78t42 -128q47 129 143 191.5 t215 62.5q84 0 153.5 -31.5t120 -98.5t78 -170t27.5 -247v-22h-719q8 -238 98.5 -345.5t247.5 -107.5q59 0 124 20.5t122 67.5l43 -53q-55 -47 -132 -78t-163 -31q-131 0 -224 64.5t-142 183.5q-86 -137 -190.5 -192.5t-194.5 -55.5q-154 0 -244 87.5t-90 252.5zM240 315 q0 -123 68.5 -197.5t185.5 -74.5t207 73.5t151 180.5q-20 72 -27 172v8q-59 41 -138 72t-169 31q-53 0 -103 -16.5t-89 -48.5t-62.5 -82t-23.5 -118zM905 569h641q0 135 -29.5 219t-74.5 132.5t-97.5 66t-99.5 17.5q-70 0 -129 -25t-104 -77t-73 -134t-34 -199z" />
<glyph unicode="&#xe7;" horiz-adv-x="989" d="M150 522q0 260 103 404.5t288 144.5q106 0 186 -56.5t119 -162.5l-74 -29q-29 84 -90 129t-141 45q-156 0 -234 -120.5t-78 -354.5q0 -225 81 -349t216 -124q94 0 164 52.5t96 140.5l74 -27q-31 -102 -107.5 -163.5t-183.5 -71.5l-57 -101q51 0 89 -15.5t62.5 -40t37 -55 t12.5 -61.5q0 -78 -52.5 -132t-146.5 -54q-47 0 -84 15t-61 42l51 37q16 -12 37.5 -23.5t54.5 -11.5q63 0 97 36t34 89t-37 88t-96 35q-45 0 -78 -16l-20 24l100 139q-166 6 -264 147.5t-98 399.5z" />
<glyph unicode="&#xe8;" horiz-adv-x="1087" d="M150 524q0 131 31.5 232.5t87 171t132 106.5t168.5 37q84 0 154 -31.5t120 -98.5t77.5 -170t27.5 -247v-22h-719q8 -236 98.5 -344.5t247.5 -108.5q59 0 124 20.5t122 67.5l43 -53q-55 -47 -132 -78t-163 -31q-201 0 -310 147.5t-109 401.5zM229 569h641q0 131 -29.5 216 t-74.5 133.5t-97.5 67t-99.5 18.5q-70 0 -129 -26t-104 -78t-72.5 -135t-34.5 -196zM260 1499h112l310 -319h-76z" />
<glyph unicode="&#xe9;" horiz-adv-x="1087" d="M150 524q0 131 31.5 232.5t87 171t132 106.5t168.5 37q84 0 154 -31.5t120 -98.5t77.5 -170t27.5 -247v-22h-719q8 -236 98.5 -344.5t247.5 -108.5q59 0 124 20.5t122 67.5l43 -53q-55 -47 -132 -78t-163 -31q-201 0 -310 147.5t-109 401.5zM229 569h641q0 131 -29.5 216 t-74.5 133.5t-97.5 67t-99.5 18.5q-70 0 -129 -26t-104 -78t-72.5 -135t-34.5 -196zM445 1180l309 319h113l-346 -319h-76z" />
<glyph unicode="&#xea;" horiz-adv-x="1087" d="M150 524q0 131 31.5 232.5t87 171t132 106.5t168.5 37q84 0 154 -31.5t120 -98.5t77.5 -170t27.5 -247v-22h-719q8 -236 98.5 -344.5t247.5 -108.5q59 0 124 20.5t122 67.5l43 -53q-55 -47 -132 -78t-163 -31q-201 0 -310 147.5t-109 401.5zM227 1180l309 319h66 l309 -319h-76l-266 245l-266 -245h-76zM229 569h641q0 131 -29.5 216t-74.5 133.5t-97.5 67t-99.5 18.5q-70 0 -129 -26t-104 -78t-72.5 -135t-34.5 -196z" />
<glyph unicode="&#xeb;" horiz-adv-x="1087" d="M150 524q0 131 31.5 232.5t87 171t132 106.5t168.5 37q84 0 154 -31.5t120 -98.5t77.5 -170t27.5 -247v-22h-719q8 -236 98.5 -344.5t247.5 -108.5q59 0 124 20.5t122 67.5l43 -53q-55 -47 -132 -78t-163 -31q-201 0 -310 147.5t-109 401.5zM229 569h641q0 131 -29.5 216 t-74.5 133.5t-97.5 67t-99.5 18.5q-70 0 -129 -26t-104 -78t-72.5 -135t-34.5 -196zM340 1300q0 27 17.5 45.5t41.5 18.5q27 0 43.5 -18.5t16.5 -45.5q0 -25 -16.5 -42t-43.5 -17q-25 0 -42 17.5t-17 41.5zM680 1300q0 27 17.5 45.5t41.5 18.5q27 0 43.5 -18.5t16.5 -45.5 q0 -25 -16.5 -42t-43.5 -17q-25 0 -42 17.5t-17 41.5z" />
<glyph unicode="&#xec;" horiz-adv-x="528" d="M19 1499h112l310 -319h-76zM227 0v1047h74v-1047h-74z" />
<glyph unicode="&#xed;" horiz-adv-x="528" d="M94 1180l309 319h113l-346 -319h-76zM227 0v1047h74v-1047h-74z" />
<glyph unicode="&#xee;" horiz-adv-x="528" d="M-78 1180l309 319h66l309 -319h-76l-266 245l-266 -245h-76zM227 0v1047h74v-1047h-74z" />
<glyph unicode="&#xef;" horiz-adv-x="528" d="M35 1300q0 27 17.5 45.5t41.5 18.5q27 0 43.5 -18.5t16.5 -45.5q0 -25 -16.5 -42t-43.5 -17q-25 0 -42 17.5t-17 41.5zM227 0v1047h74v-1047h-74zM375 1300q0 27 17.5 45.5t41.5 18.5q27 0 43.5 -18.5t16.5 -45.5q0 -25 -16.5 -42t-43.5 -17q-25 0 -42 17.5t-17 41.5z " />
<glyph unicode="&#xf0;" horiz-adv-x="1126" d="M150 453q0 109 30.5 197.5t86 151t131 97.5t163.5 35q68 0 124 -19.5t98 -53.5t71 -79t43 -96q-16 186 -86 332.5t-186 236.5l-148 -155l-45 45l135 147q-117 74 -266 94v72q180 -31 317 -112l134 143l47 -45l-127 -135q160 -123 232.5 -315.5t72.5 -446.5 q0 -281 -109.5 -426.5t-306.5 -145.5q-94 0 -170 36t-130 99.5t-82.5 151.5t-28.5 191zM229 453q0 -86 22.5 -160t65.5 -128t104.5 -85t139.5 -31t139.5 31t104.5 85t65.5 127t22.5 159t-23.5 160.5t-67.5 130t-105.5 87t-135.5 31.5q-72 0 -132 -30.5t-105 -84t-70 -129 t-25 -163.5z" />
<glyph unicode="&#xf1;" horiz-adv-x="1150" d="M221 0v1047h74v-189q20 57 56 98t78 67t88 37t87 11q166 0 251 -105.5t85 -326.5v-639h-74v653q0 190 -73.5 269t-194.5 79q-66 0 -121 -20t-95 -66.5t-63.5 -121t-23.5 -185.5v-608h-74zM254 1241q0 98 44 161.5t132 63.5q51 0 94.5 -25.5t84.5 -57t79.5 -57.5t81.5 -26 q100 0 107 158h55q0 -98 -44 -161.5t-132 -63.5q-51 0 -94 25.5t-84 57.5t-80 57.5t-82 25.5q-100 0 -106 -158h-56z" />
<glyph unicode="&#xf2;" horiz-adv-x="1126" d="M150 522q0 129 29.5 230.5t83.5 172t131 108.5t169 38q186 0 300 -142.5t114 -404.5q0 -129 -29.5 -231.5t-84 -173t-131.5 -107.5t-169 -37q-186 0 -299.5 142.5t-113.5 404.5zM229 522q0 -223 85 -348t249 -125q160 0 247 125t87 350q0 223 -85 348t-249 125 t-249 -121.5t-85 -353.5zM246 1499h112l310 -319h-76z" />
<glyph unicode="&#xf3;" horiz-adv-x="1126" d="M150 522q0 129 29.5 230.5t83.5 172t131 108.5t169 38q186 0 300 -142.5t114 -404.5q0 -129 -29.5 -231.5t-84 -173t-131.5 -107.5t-169 -37q-186 0 -299.5 142.5t-113.5 404.5zM229 522q0 -223 85 -348t249 -125q160 0 247 125t87 350q0 223 -85 348t-249 125 t-249 -121.5t-85 -353.5zM459 1180l309 319h113l-346 -319h-76z" />
<glyph unicode="&#xf4;" horiz-adv-x="1126" d="M150 522q0 129 29.5 230.5t83.5 172t131 108.5t169 38q186 0 300 -142.5t114 -404.5q0 -129 -29.5 -231.5t-84 -173t-131.5 -107.5t-169 -37q-186 0 -299.5 142.5t-113.5 404.5zM221 1180l309 319h66l309 -319h-76l-266 245l-266 -245h-76zM229 522q0 -223 85 -348 t249 -125q160 0 247 125t87 350q0 223 -85 348t-249 125t-249 -121.5t-85 -353.5z" />
<glyph unicode="&#xf5;" horiz-adv-x="1126" d="M150 522q0 129 29.5 230.5t83.5 172t131 108.5t169 38q186 0 300 -142.5t114 -404.5q0 -129 -29.5 -231.5t-84 -173t-131.5 -107.5t-169 -37q-186 0 -299.5 142.5t-113.5 404.5zM225 1241q0 98 44 161.5t132 63.5q51 0 94.5 -25.5t84.5 -57t79.5 -57.5t81.5 -26 q100 0 107 158h55q0 -98 -44 -161.5t-132 -63.5q-51 0 -94 25.5t-84 57.5t-80 57.5t-82 25.5q-100 0 -106 -158h-56zM229 522q0 -223 85 -348t249 -125q160 0 247 125t87 350q0 223 -85 348t-249 125t-249 -121.5t-85 -353.5z" />
<glyph unicode="&#xf6;" horiz-adv-x="1126" d="M150 522q0 129 29.5 230.5t83.5 172t131 108.5t169 38q186 0 300 -142.5t114 -404.5q0 -129 -29.5 -231.5t-84 -173t-131.5 -107.5t-169 -37q-186 0 -299.5 142.5t-113.5 404.5zM229 522q0 -223 85 -348t249 -125q160 0 247 125t87 350q0 223 -85 348t-249 125 t-249 -121.5t-85 -353.5zM334 1300q0 27 17.5 45.5t41.5 18.5q27 0 43.5 -18.5t16.5 -45.5q0 -25 -16.5 -42t-43.5 -17q-25 0 -42 17.5t-17 41.5zM674 1300q0 27 17.5 45.5t41.5 18.5q27 0 43.5 -18.5t16.5 -45.5q0 -25 -16.5 -42t-43.5 -17q-25 0 -42 17.5t-17 41.5z" />
<glyph unicode="&#xf7;" horiz-adv-x="1363" d="M201 666v69h962v-69h-962zM616 274q0 27 17.5 45.5t42.5 18.5q27 0 43 -18.5t16 -45.5q0 -25 -16 -42t-43 -17q-25 0 -42.5 17.5t-17.5 41.5zM616 1124q0 27 17.5 45.5t42.5 18.5q27 0 43 -18.5t16 -45.5q0 -25 -16 -42t-43 -17q-25 0 -42.5 17.5t-17.5 41.5z" />
<glyph unicode="&#xf8;" horiz-adv-x="1126" d="M139 -25l111 160q-47 70 -73.5 167t-26.5 220q0 129 29.5 230.5t83.5 172t131 108.5t169 38q158 0 266 -104l72 104h86l-113 -160q49 -70 76 -167t27 -220q0 -129 -29.5 -231.5t-84 -173t-131.5 -107.5t-169 -37q-160 0 -266 103l-72 -103h-86zM229 522q0 -203 68 -319 l489 702q-86 92 -223 92q-164 0 -249 -122t-85 -353zM342 141q82 -92 221 -92q160 0 247 125t87 350q0 98 -16.5 179t-51.5 141z" />
<glyph unicode="&#xf9;" horiz-adv-x="1150" d="M211 408v639h74v-656q0 -190 73.5 -269t194.5 -79q63 0 119.5 20.5t96.5 67.5t63.5 122t23.5 185v609h74v-1047h-74v176q-27 -57 -62.5 -96t-75.5 -61.5t-84 -33t-85 -10.5q-166 0 -252 105.5t-86 327.5zM273 1499h112l310 -319h-76z" />
<glyph unicode="&#xfa;" horiz-adv-x="1150" d="M211 408v639h74v-656q0 -190 73.5 -269t194.5 -79q63 0 119.5 20.5t96.5 67.5t63.5 122t23.5 185v609h74v-1047h-74v176q-27 -57 -62.5 -96t-75.5 -61.5t-84 -33t-85 -10.5q-166 0 -252 105.5t-86 327.5zM439 1180l309 319h113l-346 -319h-76z" />
<glyph unicode="&#xfb;" horiz-adv-x="1150" d="M211 408v639h74v-656q0 -190 73.5 -269t194.5 -79q63 0 119.5 20.5t96.5 67.5t63.5 122t23.5 185v609h74v-1047h-74v176q-27 -57 -62.5 -96t-75.5 -61.5t-84 -33t-85 -10.5q-166 0 -252 105.5t-86 327.5zM221 1180l309 319h66l309 -319h-76l-266 245l-266 -245h-76z" />
<glyph unicode="&#xfc;" horiz-adv-x="1150" d="M211 408v639h74v-656q0 -190 73.5 -269t194.5 -79q63 0 119.5 20.5t96.5 67.5t63.5 122t23.5 185v609h74v-1047h-74v176q-27 -57 -62.5 -96t-75.5 -61.5t-84 -33t-85 -10.5q-166 0 -252 105.5t-86 327.5zM334 1300q0 27 17.5 45.5t41.5 18.5q27 0 43.5 -18.5t16.5 -45.5 q0 -25 -16.5 -42t-43.5 -17q-25 0 -42 17.5t-17 41.5zM674 1300q0 27 17.5 45.5t41.5 18.5q27 0 43.5 -18.5t16.5 -45.5q0 -25 -16.5 -42t-43.5 -17q-25 0 -42 17.5t-17 41.5z" />
<glyph unicode="&#xfd;" horiz-adv-x="1054" d="M109 1047h73l340 -926l340 926h74l-533 -1444h-73l155 422zM303 1180l309 319h113l-346 -319h-76z" />
<glyph unicode="&#xfe;" horiz-adv-x="1163" d="M221 -416v1858l74 37v-584q109 176 321 176q92 0 166 -39t125 -110.5t79 -173t28 -224.5q0 -268 -114 -408.5t-300 -140.5q-98 0 -179 52.5t-126 144.5v-551zM295 274q51 -104 130 -164.5t175 -60.5q160 0 247 123t87 352q0 106 -22.5 194.5t-65.5 150t-105.5 95 t-140.5 33.5q-96 0 -177 -54t-128 -146v-523z" />
<glyph unicode="&#xff;" horiz-adv-x="1054" d="M109 1047h73l340 -926l340 926h74l-533 -1444h-73l155 422zM287 1300q0 27 17.5 45.5t41.5 18.5q27 0 43.5 -18.5t16.5 -45.5q0 -25 -16.5 -42t-43.5 -17q-25 0 -42 17.5t-17 41.5zM627 1300q0 27 17.5 45.5t41.5 18.5q27 0 43.5 -18.5t16.5 -45.5q0 -25 -16.5 -42 t-43.5 -17q-25 0 -42 17.5t-17 41.5z" />
<glyph unicode="&#x152;" horiz-adv-x="1894" d="M184 717q0 135 31 268t98.5 237.5t176 170t264.5 65.5q88 0 153.5 -23.5t106.5 -48.5v48h651v-68h-578v-590h359v-67h-359v-641h623v-68h-696v49q-37 -25 -104.5 -49.5t-155.5 -24.5q-158 0 -266.5 65.5t-176 171t-97.5 238t-30 267.5zM262 715q0 -129 25.5 -249t84 -212 t152 -148.5t230.5 -56.5q86 0 152.5 28.5t107.5 63.5v1157q-53 41 -122 63.5t-138 22.5q-137 0 -230.5 -60t-152 -156.5t-84 -215t-25.5 -237.5z" />
<glyph unicode="&#x153;" horiz-adv-x="1835" d="M150 522q0 129 29.5 230.5t83.5 172t131 108.5t169 38q133 0 233.5 -75.5t141.5 -229.5q43 154 145.5 229.5t233.5 75.5q84 0 153.5 -31.5t119.5 -98.5t78 -170t28 -247v-22h-719q8 -238 98 -345.5t248 -107.5q59 0 123.5 20.5t122.5 67.5l43 -53q-55 -47 -132 -78 t-163 -31q-141 0 -240.5 77t-140.5 227q-41 -152 -141.5 -228t-231.5 -76q-186 0 -299.5 142.5t-113.5 404.5zM229 522q0 -223 85 -348t249 -125q156 0 245 121t89 354q0 229 -87 351t-247 122q-164 0 -249 -121.5t-85 -353.5zM977 569h641q0 135 -29.5 219t-75 132.5 t-97.5 66t-99 17.5q-70 0 -129.5 -25t-104.5 -77t-72.5 -134t-33.5 -199z" />
<glyph unicode="&#x178;" horiz-adv-x="1249" d="M121 1434h80l424 -791l424 791h79l-466 -867v-567h-74v567zM395 1689q0 27 17.5 45.5t41.5 18.5q27 0 43.5 -18.5t16.5 -45.5q0 -25 -16.5 -42t-43.5 -17q-25 0 -42 17.5t-17 41.5zM735 1689q0 27 17.5 45.5t41.5 18.5q27 0 43.5 -18.5t16.5 -45.5q0 -25 -16.5 -42 t-43.5 -17q-25 0 -42 17.5t-17 41.5z" />
<glyph unicode="&#x2c6;" horiz-adv-x="698" d="M10 1180l309 319h66l309 -319h-76l-266 245l-266 -245h-76z" />
<glyph unicode="&#x2dc;" horiz-adv-x="698" d="M10 1241q0 98 44 161.5t132 63.5q51 0 94.5 -25.5t84.5 -57t79.5 -57.5t81.5 -26q100 0 107 158h55q0 -98 -44 -161.5t-132 -63.5q-51 0 -94 25.5t-84 57.5t-80 57.5t-82 25.5q-100 0 -106 -158h-56z" />
<glyph unicode="&#x2000;" horiz-adv-x="944" />
<glyph unicode="&#x2001;" horiz-adv-x="1888" />
<glyph unicode="&#x2002;" horiz-adv-x="944" />
<glyph unicode="&#x2003;" horiz-adv-x="1888" />
<glyph unicode="&#x2004;" horiz-adv-x="629" />
<glyph unicode="&#x2005;" horiz-adv-x="472" />
<glyph unicode="&#x2006;" horiz-adv-x="314" />
<glyph unicode="&#x2007;" horiz-adv-x="314" />
<glyph unicode="&#x2008;" horiz-adv-x="236" />
<glyph unicode="&#x2009;" horiz-adv-x="377" />
<glyph unicode="&#x200a;" horiz-adv-x="104" />
<glyph unicode="&#x2010;" horiz-adv-x="837" d="M190 573v74h457v-74h-457z" />
<glyph unicode="&#x2011;" horiz-adv-x="837" d="M190 573v74h457v-74h-457z" />
<glyph unicode="&#x2012;" horiz-adv-x="837" d="M190 573v74h457v-74h-457z" />
<glyph unicode="&#x2013;" horiz-adv-x="1087" d="M154 551v74h780v-74h-780z" />
<glyph unicode="&#x2014;" horiz-adv-x="1251" d="M27 551v74h1198v-74h-1198z" />
<glyph unicode="&#x2018;" horiz-adv-x="434" d="M150 1169q0 43 10 87t25.5 82t35 70t37.5 50l18 -6q-29 -41 -48 -105.5t-19 -121.5q0 -12 1 -18.5t1 -8.5q29 0 47 -16.5t18 -42.5q0 -29 -17 -46.5t-42 -17.5q-29 0 -48 20.5t-19 73.5z" />
<glyph unicode="&#x2019;" horiz-adv-x="434" d="M158 1081q29 41 48 105.5t19 122.5q0 12 -1 18t-1 8q-29 0 -47 16.5t-18 43.5q0 29 17.5 46t41.5 17q29 0 48.5 -20.5t19.5 -73.5q0 -43 -10.5 -87t-26 -82t-34.5 -69.5t-38 -50.5z" />
<glyph unicode="&#x201a;" horiz-adv-x="434" d="M158 31q0 29 17.5 46t41.5 17q29 0 48.5 -20.5t19.5 -73.5q0 -43 -10.5 -87t-26 -82t-34.5 -69.5t-38 -50.5l-18 6q29 41 48 105.5t19 122.5q0 8 -1 14t-1 12q-29 0 -47 16.5t-18 43.5z" />
<glyph unicode="&#x201c;" horiz-adv-x="794" d="M150 1169q0 43 10 87t25.5 82t35 70t37.5 50l18 -6q-29 -41 -48 -105.5t-19 -121.5q0 -12 1 -18.5t1 -8.5q29 0 47 -16.5t18 -42.5q0 -29 -17 -46.5t-42 -17.5q-29 0 -48 20.5t-19 73.5zM510 1169q0 43 10 87t25.5 82t35 70t37.5 50l19 -6q-29 -41 -48.5 -105.5 t-19.5 -121.5q0 -12 1 -18.5t1 -8.5q29 0 47.5 -16.5t18.5 -42.5q0 -29 -17.5 -46.5t-41.5 -17.5q-29 0 -48.5 20.5t-19.5 73.5z" />
<glyph unicode="&#x201d;" horiz-adv-x="794" d="M158 1081q29 41 48 105.5t19 122.5q0 12 -1 18t-1 8q-29 0 -47 16.5t-18 43.5q0 29 17.5 46t41.5 17q29 0 48.5 -20.5t19.5 -73.5q0 -43 -10.5 -87t-26 -82t-34.5 -69.5t-38 -50.5zM518 1081q29 41 48.5 105.5t19.5 122.5q0 12 -1 18t-1 8q-29 0 -47.5 16.5t-18.5 43.5 q0 29 17.5 46t42.5 17q29 0 48 -20.5t19 -73.5q0 -43 -10 -87t-25.5 -82t-35 -69.5t-37.5 -50.5z" />
<glyph unicode="&#x201e;" horiz-adv-x="794" d="M158 31q0 29 17.5 46t41.5 17q29 0 48.5 -20.5t19.5 -73.5q0 -43 -10.5 -87t-26 -82t-34.5 -69.5t-38 -50.5l-18 6q29 41 48 105.5t19 122.5q0 10 -1 17t-1 9q-29 0 -47 16.5t-18 43.5zM518 31q0 29 17.5 46t42.5 17q29 0 48 -20.5t19 -73.5q0 -43 -10 -87t-25.5 -82 t-35 -69.5t-37.5 -50.5l-19 6q29 41 48.5 105.5t19.5 122.5q0 10 -1 17t-1 9q-29 0 -47.5 16.5t-18.5 43.5z" />
<glyph unicode="&#x2022;" horiz-adv-x="864" d="M252 719q0 74 52 126t128 52t128 -52t52 -126t-52 -126t-128 -52t-128 52t-52 126z" />
<glyph unicode="&#x2026;" horiz-adv-x="1691" d="M244 35q0 27 17.5 45t41.5 18q27 0 43 -18.5t16 -44.5q0 -25 -16 -42.5t-43 -17.5q-25 0 -42 17.5t-17 42.5zM784 35q0 27 17.5 45t42.5 18q27 0 43 -18.5t16 -44.5q0 -25 -16 -42.5t-43 -17.5q-25 0 -42.5 17.5t-17.5 42.5zM1323 35q0 27 17.5 45t41.5 18 q27 0 43.5 -18.5t16.5 -44.5q0 -25 -16.5 -42.5t-43.5 -17.5q-25 0 -42 17.5t-17 42.5z" />
<glyph unicode="&#x202f;" horiz-adv-x="377" />
<glyph unicode="&#x2039;" horiz-adv-x="595" d="M115 524l311 523h86l-311 -523l311 -524h-86z" />
<glyph unicode="&#x203a;" horiz-adv-x="595" d="M84 0l311 524l-311 523h86l311 -523l-311 -524h-86z" />
<glyph unicode="&#x205f;" horiz-adv-x="472" />
<glyph unicode="&#x20ac;" horiz-adv-x="1220" d="M129 500l29 67h90q-4 33 -4 65v64q0 35 2 70t6 72h-123l29 67h102q16 104 53 203.5t97.5 177.5t146.5 125t203 47q84 0 161.5 -20.5t139.5 -61.5l-29 -67q-53 35 -123.5 55t-148.5 20q-100 0 -173 -40.5t-123 -108.5t-80 -154t-44 -176h524l-28 -67h-504q-4 -37 -6 -72 t-2 -70q0 -66 6 -129h393l-27 -67h-358q12 -86 41 -168t77 -144.5t118.5 -100.5t166.5 -38q98 0 173 40t128 99l60 -41q-25 -33 -60.5 -63.5t-81 -55t-101 -39t-118.5 -14.5q-119 0 -203.5 44t-142 118t-90.5 168t-47 195h-129z" />
<glyph unicode="&#x2122;" horiz-adv-x="1622" d="M88 1364v70h563v-70h-243v-795h-74v795h-246zM756 569v865h45l293 -701l292 701h46v-865h-74v609l-264 -629l-265 629v-609h-73z" />
<glyph unicode="&#x25fc;" horiz-adv-x="1044" d="M0 0v1044h1044v-1044h-1044z" />
</font>
</defs>
</svg>
