<?xml version="1.0" standalone="no"?>
<!DOCTYPE svg PUBLIC "-//W3C//DTD SVG 1.1//EN" "http://www.w3.org/Graphics/SVG/1.1/DTD/svg11.dtd" >
<svg xmlns="http://www.w3.org/2000/svg">
<metadata></metadata>
<defs>
<font id="overpasslight_italic" horiz-adv-x="1341" >
<font-face units-per-em="2048" ascent="1536" descent="-512" />
<missing-glyph horiz-adv-x="452" />
<glyph unicode="&#xfb01;" horiz-adv-x="1118" d="M217 918l23 129h174l32 188q23 129 91.5 176t160.5 47q57 0 94 -15.5t68 -33.5l-20 -125q-31 16 -64 28.5t-74 12.5q-33 0 -53 -11t-33.5 -28.5t-19.5 -40t-10 -43.5l-29 -155h240l-23 -129h-239l-162 -918h-144l162 918h-174zM783 0l184 1047h143l-184 -1047h-143z M998 1341q0 47 32.5 80t73.5 33q39 0 60.5 -22.5t21.5 -57.5q0 -47 -34 -79.5t-75 -32.5q-35 0 -57 22.5t-22 56.5z" />
<glyph unicode="&#xfb02;" horiz-adv-x="1134" d="M217 918l23 129h174l32 188q23 129 91.5 176t160.5 47q57 0 94 -15.5t68 -33.5l-20 -125q-31 16 -64 28.5t-74 12.5q-33 0 -53 -11t-33.5 -28.5t-19.5 -40t-10 -43.5l-29 -155h240l-23 -129h-239l-162 -918h-144l162 918h-174zM785 0l250 1417l153 62l-260 -1479h-143z " />
<glyph horiz-adv-x="0" />
<glyph horiz-adv-x="682" />
<glyph unicode=" "  horiz-adv-x="452" />
<glyph unicode="&#x09;" horiz-adv-x="452" />
<glyph unicode="&#xa0;" horiz-adv-x="452" />
<glyph unicode="!" horiz-adv-x="573" d="M180 82q0 27 12.5 53.5t33 48t47 33.5t55.5 12q47 0 75.5 -33.5t28.5 -76.5q0 -29 -12 -54.5t-32.5 -47t-48 -34t-56.5 -12.5q-47 0 -75 34t-28 77zM348 395l51 619l80 444h142l-80 -444l-170 -619h-23z" />
<glyph unicode="&#x22;" horiz-adv-x="800" d="M328 887l63 547h172l-133 -547h-102zM676 887l63 547h174l-133 -547h-57h-47z" />
<glyph unicode="#" horiz-adv-x="1390" d="M207 418l47 129h235l123 364h-231l41 125h225l152 398h114l-131 -398h277l129 398h135l-129 -398h244l-41 -125h-240l-123 -364h232l-41 -129h-230l-135 -418h-135l135 418h-276l-138 -418h-131l136 418h-244zM621 547h278l123 364h-279z" />
<glyph unicode="$" horiz-adv-x="1208" d="M197 266l137 49q25 -94 100.5 -150t194.5 -56q156 0 248 77.5t92 223.5q0 86 -44 141t-109.5 95t-141.5 75t-141.5 79t-109.5 107.5t-44 161.5q0 74 28.5 139.5t83 117.5t129 85t166.5 43l29 162h139l-28 -164q117 -16 186.5 -75.5t79.5 -145.5l-135 -45q-16 57 -74.5 98 t-163.5 41q-137 0 -216 -61.5t-79 -165.5q0 -72 44 -118t109.5 -83t142.5 -71.5t142.5 -84t109.5 -120t44 -179.5q0 -102 -33.5 -184t-94 -141.5t-143.5 -94t-179 -42.5l-31 -181h-139l30 183q-141 18 -226 99t-103 185z" />
<glyph unicode="%" horiz-adv-x="1792" d="M322 1018q0 68 22.5 145.5t70.5 143t119.5 108.5t170.5 43q70 0 117.5 -25.5t77.5 -66.5t43 -93t13 -104q0 -68 -21.5 -145.5t-67.5 -143t-119 -108.5t-173 -43q-70 0 -117.5 25.5t-78.5 66.5t-44 92.5t-13 104.5zM350 -25l1202 1483h142l-1202 -1483h-142zM453 1028 q0 -76 33.5 -128t109.5 -52q55 0 98 25.5t73 68.5t45 99.5t15 117.5q0 78 -35.5 129t-109.5 51q-57 0 -100 -26.5t-72 -69.5t-43 -99.5t-14 -115.5zM1085 262q0 68 22.5 145.5t70 144t119 110t171.5 43.5q70 0 117 -26t77 -66t43 -92t13 -103q0 -68 -21.5 -145.5 t-66.5 -144.5t-118 -110t-173 -43q-72 0 -120 26t-77.5 67t-43 92t-13.5 102zM1214 276q0 -78 35 -130t111 -52q55 0 98 25.5t73 68.5t45 99.5t15 115.5q0 78 -35.5 130.5t-109.5 52.5q-59 0 -102.5 -27t-72 -70t-43 -98t-14.5 -115z" />
<glyph unicode="&#x26;" horiz-adv-x="1327" d="M170 289q0 94 29.5 167.5t85 135t132.5 114t169 101.5q-57 96 -86 168t-29 135q0 80 32 144.5t84 109.5t121.5 69.5t145.5 24.5q119 0 190.5 -72.5t71.5 -183.5q0 -135 -92 -231.5t-250 -186.5l232 -372q47 72 75.5 137t38.5 104h129q-18 -72 -56 -161t-116 -191 l189 -301h-170l-119 186q-111 -104 -238 -157.5t-245 -53.5q-152 0 -238 86t-86 228zM305 328q0 -100 64.5 -162t173.5 -62q86 0 183 49.5t183 139.5l-266 420q-84 -49 -147.5 -92t-105.5 -88.5t-63.5 -95.5t-21.5 -109zM602 1133q0 -47 31 -109.5t84 -149.5 q129 72 196.5 142.5t67.5 157.5q0 72 -44 114.5t-114 42.5q-98 0 -159.5 -56t-61.5 -142z" />
<glyph unicode="'" horiz-adv-x="450" d="M328 887l63 547h172l-133 -547h-102z" />
<glyph unicode="(" horiz-adv-x="712" d="M260 301q0 219 40 397.5t104.5 320.5t144.5 250.5t160 188.5h131q-25 -27 -68 -78t-91 -125.5t-98.5 -172t-91 -214t-66.5 -252t-26 -288.5q0 -113 13.5 -210.5t32 -174t38 -131t31.5 -78.5h-133q-47 88 -84 233.5t-37 333.5z" />
<glyph unicode=")" horiz-adv-x="712" d="M104 -266q23 27 62 76t85 119.5t93 162.5t85 205t62.5 246t24.5 286q0 115 -14.5 218.5t-35 186.5t-43 141.5t-36.5 82.5h133q55 -90 95 -246.5t40 -351.5q0 -215 -36.5 -387t-96 -308t-135.5 -241.5t-151 -189.5h-132z" />
<glyph unicode="*" horiz-adv-x="1095" d="M326 1079l69 135l178 -65l123 -100l-2 170l41 229h137l-41 -229l-67 -170l158 100l206 65l23 -135l-217 -69l-154 -11l101 -114l94 -180l-125 -89l-100 189l-35 164l-90 -164l-162 -189l-94 89l157 180l133 114l-145 11z" />
<glyph unicode="+" d="M307 631v139h406v414h147v-414h410v-139h-410v-410h-147v410h-406z" />
<glyph unicode="," horiz-adv-x="487" d="M117 -279q14 12 35.5 34t42 52.5t38 69.5t25.5 84q-57 0 -90 31t-33 78q0 70 44 111.5t100 41.5q47 0 80.5 -32.5t33.5 -100.5q0 -123 -69.5 -221t-171.5 -158z" />
<glyph unicode="-" horiz-adv-x="835" d="M295 541l24 139h439l-25 -139h-438z" />
<glyph unicode="." horiz-adv-x="487" d="M137 82q0 27 12.5 53.5t33 48t47 33.5t55.5 12q47 0 75.5 -33.5t28.5 -76.5q0 -29 -12 -54.5t-32.5 -47t-48 -34t-56.5 -12.5q-47 0 -75 34t-28 77z" />
<glyph unicode="/" horiz-adv-x="999" d="M-25 -266l1078 1724h133l-1077 -1724h-134z" />
<glyph unicode="0" horiz-adv-x="1261" d="M260 483q0 104 13.5 217t42 221.5t75.5 206t114.5 171t157 116.5t203.5 43q111 0 184.5 -45t117.5 -116.5t63.5 -163t19.5 -183.5q0 -104 -13 -216.5t-42 -221.5t-76 -206t-114.5 -171t-156.5 -117t-204 -43q-111 0 -184.5 45.5t-117.5 117t-63.5 162.5t-19.5 183z M403 498q0 -72 11.5 -141.5t40 -126t76.5 -91.5t124 -35q96 0 168 48.5t122 124t82 170t50.5 187.5t24.5 173t6 129q0 70 -11.5 140.5t-40 127t-76.5 91t-124 34.5q-96 0 -168 -48t-122 -124t-81.5 -170t-50 -187t-25 -173t-6.5 -129z" />
<glyph unicode="1" horiz-adv-x="700" d="M307 1174l15 81q104 0 187 38t132 141h88l-252 -1434h-143l207 1174h-234z" />
<glyph unicode="2" horiz-adv-x="1222" d="M162 0q18 135 71.5 234.5t127 174t159.5 133t170 109.5q80 49 155 97.5t132 100.5t92 113.5t35 139.5q0 96 -68.5 161.5t-195.5 65.5t-211 -61.5t-129 -169.5l-117 57q25 63 69 118.5t103 96.5t133 64.5t158 23.5q94 0 167.5 -26.5t126 -74.5t80 -111.5t27.5 -137.5 q0 -109 -45 -191.5t-117.5 -152.5t-165 -127t-184.5 -113q-72 -43 -134 -85t-112.5 -89t-86 -99t-54.5 -114h739l-24 -137h-901z" />
<glyph unicode="3" horiz-adv-x="1204" d="M184 313l129 43q68 -252 324 -252q70 0 132 20.5t108.5 62.5t74 103.5t27.5 143.5q0 115 -66.5 181.5t-199.5 66.5h-105l23 129h84q72 0 132 21.5t104 59.5t68.5 93t24.5 123q0 102 -65.5 161.5t-173.5 59.5q-119 0 -198 -56t-120 -161l-129 43q20 57 59.5 112.5 t95.5 97.5t130 67.5t166 25.5q88 0 157.5 -24.5t119 -69.5t76 -106.5t26.5 -135.5q0 -127 -63.5 -222t-188.5 -155q37 -14 70.5 -42.5t59.5 -68.5t41 -89t15 -105q0 -111 -39 -197.5t-104.5 -146t-154.5 -90.5t-187 -31q-113 0 -194 34t-135 84t-83.5 109.5t-40.5 110.5z " />
<glyph unicode="4" horiz-adv-x="1198" d="M147 387l15 76l895 971h88l-162 -920h203l-23 -127h-202l-68 -387h-143l67 387h-670zM373 514h467l112 637z" />
<glyph unicode="5" horiz-adv-x="1277" d="M186 184l99 95q27 -33 62.5 -65t79.5 -56.5t100.5 -39t125.5 -14.5q90 0 166 27t130.5 77t84 120.5t29.5 158.5q0 61 -15.5 116.5t-50 98.5t-90 69t-135.5 26q-111 0 -193.5 -44t-129.5 -102l-115 39l241 744h697l-23 -131h-583l-162 -484q49 41 123.5 74t177.5 33 q88 0 161.5 -29t127 -84t83 -133t29.5 -176q0 -113 -38 -210t-109.5 -168t-178 -111t-243.5 -40q-88 0 -161 20.5t-130 52.5t-98 69t-62 67z" />
<glyph unicode="6" horiz-adv-x="1196" d="M201 399q0 178 72.5 350.5t196.5 316.5t287 248.5t345 149.5l-21 -127q-117 -33 -219 -91t-187 -134t-150.5 -166t-106.5 -188q53 57 139 94t191 37q84 0 154.5 -29t120.5 -80t77.5 -121.5t27.5 -152.5q0 -117 -38.5 -214t-107.5 -168t-164 -110t-208 -39q-102 0 -179 34 t-128 92.5t-76.5 135t-25.5 162.5zM344 377q0 -119 69.5 -196t202.5 -77q82 0 150 29t117 80t76.5 120.5t27.5 153.5q0 127 -74.5 200t-197.5 73q-80 0 -147.5 -29t-117 -79t-78 -120.5t-28.5 -154.5z" />
<glyph unicode="7" horiz-adv-x="1024" d="M332 1311l20 123h824l-17 -95q-174 -172 -292.5 -353t-195.5 -356t-119 -337t-63 -293h-145q29 166 76 330t121.5 326.5t183.5 325.5t262 329h-655z" />
<glyph unicode="8" horiz-adv-x="1218" d="M221 362q0 74 20.5 146t61.5 131t103.5 105.5t146.5 68.5q-16 8 -41 28.5t-47.5 51.5t-37.5 72t-15 92q0 78 28.5 150.5t83 128t133 89t181.5 33.5q78 0 142 -25.5t111.5 -70.5t74 -106.5t26.5 -133.5q0 -119 -63.5 -210t-176.5 -132q96 -41 144.5 -126t48.5 -183 q0 -109 -37 -200t-103.5 -156.5t-158.5 -102.5t-203 -37q-102 0 -181 30t-132.5 81t-81 122t-27.5 154zM365 371q0 -123 75.5 -195t210.5 -72q70 0 133.5 24t111.5 70t76.5 113.5t28.5 153.5q0 111 -70.5 188.5t-207.5 77.5q-76 0 -141.5 -25.5t-113.5 -72.5t-75.5 -113.5 t-27.5 -148.5zM549 1059q0 -43 14.5 -81t43 -67.5t70.5 -47t97 -17.5q57 0 108.5 18.5t90.5 54t60.5 86t21.5 111.5q0 98 -60.5 155.5t-165.5 57.5q-59 0 -110 -20.5t-89 -56t-59.5 -85t-21.5 -108.5z" />
<glyph unicode="9" horiz-adv-x="1196" d="M297 915q0 117 42 216.5t114.5 172t172 113.5t214.5 41q98 0 169.5 -32.5t120 -91t72 -137.5t23.5 -169q0 -178 -67.5 -348t-184.5 -312.5t-275.5 -246t-341.5 -146.5l21 127q111 31 212 91.5t185 138.5t145.5 169t90.5 181q-53 -63 -144.5 -101t-199.5 -38 q-74 0 -141.5 25.5t-118 73.5t-80 117.5t-29.5 155.5zM438 936q0 -57 17.5 -107.5t51.5 -87t82 -57t111 -20.5q80 0 150 29.5t121 81.5t80.5 123t29.5 155q0 121 -65.5 198.5t-192.5 77.5q-80 0 -150.5 -30.5t-122.5 -84t-82 -125t-30 -153.5z" />
<glyph unicode=":" horiz-adv-x="487" d="M137 82q0 27 12.5 53.5t33 48t47 33.5t55.5 12q47 0 75.5 -33.5t28.5 -76.5q0 -29 -12 -54.5t-32.5 -47t-48 -34t-56.5 -12.5q-47 0 -75 34t-28 77zM270 842q0 27 12.5 53.5t33 48t47 33.5t55.5 12q47 0 75.5 -33.5t28.5 -76.5q0 -29 -12 -54.5t-32.5 -47t-47 -34 t-57.5 -12.5q-47 0 -75 34t-28 77z" />
<glyph unicode=";" horiz-adv-x="487" d="M117 -279q31 25 72.5 87.5t58.5 154.5q-49 0 -81 30t-32 77q0 70 44 111.5t100 41.5q47 0 80.5 -32.5t33.5 -100.5q0 -123 -69.5 -221t-171.5 -158zM270 842q0 27 12.5 53.5t33 48t47 33.5t55.5 12q47 0 75.5 -33.5t28.5 -76.5q0 -29 -12 -54.5t-32.5 -47t-47 -34 t-57.5 -12.5q-47 0 -75 34t-28 77z" />
<glyph unicode="&#x3c;" d="M315 633v135l963 389v-137l-805 -318l805 -317v-139z" />
<glyph unicode="=" d="M307 469v137h963v-61v-76h-963zM307 795v137h963v-137h-963z" />
<glyph unicode="&#x3e;" d="M301 246v135l805 321l-805 318v137l963 -389v-135z" />
<glyph unicode="?" horiz-adv-x="1077" d="M266 999q18 102 67.5 187.5t120 146t159.5 93t188 32.5q88 0 154.5 -25.5t110.5 -68.5t66.5 -100.5t22.5 -120.5q0 -106 -31.5 -178t-81 -123t-109 -93t-113.5 -87.5t-98 -104.5t-60 -147l-5 -21h-141l4 21q20 102 64.5 171.5t98.5 122t112.5 93.5t105.5 86t78 101 t31 138q0 84 -58.5 143.5t-175.5 59.5q-147 0 -244.5 -85t-125.5 -241h-140zM406 82q0 27 12 53.5t32.5 48t47 33.5t57.5 12q47 0 74.5 -33.5t27.5 -76.5q0 -29 -12 -54.5t-32.5 -47t-47 -34t-55.5 -12.5q-49 0 -76.5 34t-27.5 77z" />
<glyph unicode="@" horiz-adv-x="1613" d="M227 553q0 199 76 365.5t200 286.5t280.5 186.5t318.5 66.5q127 0 229.5 -37t174 -104.5t110.5 -161.5t39 -207q0 -127 -36 -240.5t-96.5 -197.5t-137 -133t-156.5 -49q-82 0 -120 42t-40 113q-53 -76 -128 -125t-153 -49q-53 0 -96 21.5t-73.5 59.5t-47 90t-16.5 112 q0 98 34 187t93 157t140 107.5t173 39.5q90 0 141.5 -52t51.5 -144l57 170h125l-162 -475q-4 -14 -7 -29.5t-3 -38.5q0 -33 18.5 -53.5t53.5 -20.5q51 0 99 44t85 115t59.5 160t22.5 179q0 94 -35 168t-95 124t-142 75.5t-179 25.5q-164 0 -297 -59.5t-228 -161.5 t-147.5 -239.5t-52.5 -290.5q0 -98 30 -185.5t89.5 -152t147.5 -102.5t204 -38q72 0 152 10.5t137 28.5l-53 -135q-55 -16 -123.5 -23.5t-140.5 -7.5q-125 0 -230.5 40t-182.5 114t-120 181.5t-43 242.5zM698 606q0 -78 38 -125t104 -47q59 0 111.5 30t90 78t60 110.5 t22.5 129.5q0 84 -34.5 130t-102.5 46q-66 0 -118 -30.5t-91 -79.5t-59.5 -112.5t-20.5 -129.5z" />
<glyph unicode="A" horiz-adv-x="1345" d="M131 0l729 1434h115l231 -1434h-139l-59 371h-539l-186 -371h-152zM532 498h457l-90 573q-4 27 -10 68t-8 61q-8 -20 -26.5 -60t-33.5 -69z" />
<glyph unicode="B" horiz-adv-x="1304" d="M225 0l252 1434h449q104 0 174.5 -28t113.5 -73t61.5 -102t18.5 -117q0 -92 -30.5 -158.5t-76.5 -110.5t-97.5 -67.5t-92.5 -32.5q109 -23 170.5 -108.5t61.5 -202.5q0 -76 -23.5 -153.5t-82 -140t-156 -101.5t-242.5 -39h-500zM391 129h348q111 0 179.5 32t106.5 80 t51.5 102t13.5 97q0 49 -14.5 92t-49.5 77t-94.5 53.5t-147.5 19.5h-295zM510 807h272q184 0 278.5 82t94.5 209q0 41 -10 77.5t-37 65.5t-74 46.5t-119 17.5h-317z" />
<glyph unicode="C" horiz-adv-x="1308" d="M268 569q0 168 48.5 329t139.5 285t223 199.5t302 75.5q80 0 143.5 -21.5t111.5 -54t80 -74.5t50 -81l-117 -66q-20 33 -44.5 63.5t-58.5 54.5t-79 37t-104 13q-135 0 -237.5 -67.5t-172.5 -175t-105.5 -239.5t-35.5 -261q0 -90 19.5 -176t62.5 -154t108.5 -110 t157.5 -42q121 0 199.5 51.5t142.5 133.5l117 -58q-31 -49 -75 -95t-101.5 -82t-130 -57.5t-160.5 -21.5q-127 0 -218.5 51.5t-150.5 135.5t-87 190.5t-28 216.5z" />
<glyph unicode="D" horiz-adv-x="1376" d="M225 0l252 1434h363q145 0 245.5 -54.5t162 -140.5t89 -192.5t27.5 -210.5q0 -133 -36 -279.5t-125 -270.5t-239.5 -205t-377.5 -81h-361zM391 129h227q174 0 290 68.5t185.5 173t98.5 229.5t29 236q0 84 -20.5 167.5t-65.5 150.5t-117 109t-172 42h-248z" />
<glyph unicode="E" horiz-adv-x="1214" d="M225 0l252 1434h787l-21 -129h-645l-88 -498h436l-24 -129h-435l-96 -549h688l-22 -129h-832z" />
<glyph unicode="F" horiz-adv-x="1153" d="M225 0l252 1434h807l-20 -129h-666l-88 -498h448l-24 -129h-447l-118 -678h-144z" />
<glyph unicode="G" horiz-adv-x="1390" d="M268 541q0 170 44 334.5t133.5 293.5t221.5 209t310 80q88 0 153.5 -22.5t113.5 -56t78 -74.5t46 -78l-127 -68q-35 70 -102.5 120t-188.5 50q-133 0 -233.5 -70.5t-168 -181t-102 -248t-34.5 -270.5q0 -88 19.5 -170t60 -145.5t105.5 -101.5t155 -38q152 0 252 96.5 t129 260.5l14 86h-248l23 127h399l-33 -180q-25 -133 -75 -231.5t-120.5 -162t-159 -94.5t-188.5 -31q-125 0 -215 48.5t-148 128t-86 181t-28 208.5z" />
<glyph unicode="H" horiz-adv-x="1404" d="M225 0l252 1434h144l-109 -621h672l108 621h144l-252 -1434h-144l119 678h-670l-118 -678h-146z" />
<glyph unicode="I" horiz-adv-x="593" d="M225 0l252 1434h144l-252 -1434h-144z" />
<glyph unicode="J" horiz-adv-x="1097" d="M139 223l119 49q25 -66 77 -117t148 -51q61 0 112.5 17.5t91.5 58.5t69.5 107.5t48.5 167.5l172 979h143l-174 -990q-29 -158 -81 -251t-116.5 -141t-134.5 -62.5t-133 -14.5q-129 0 -218 72t-124 176z" />
<glyph unicode="K" horiz-adv-x="1306" d="M225 0l252 1434h144l-123 -701l657 701h168l-475 -504l326 -930h-148l-285 817l-282 -301l-90 -516h-144z" />
<glyph unicode="L" horiz-adv-x="1148" d="M225 0l252 1434h144l-228 -1297h680l-24 -137h-824z" />
<glyph unicode="M" horiz-adv-x="1619" d="M225 0l252 1434h133l219 -1008q4 -20 10.5 -46t10.5 -54q10 23 27.5 52.5t25.5 41.5l610 1014h138l-252 -1434h-144l175 985q4 18 8 45t8 37q-6 -16 -20.5 -39.5t-20.5 -34.5l-614 -1018l-224 1008q-4 14 -7 33.5t-7 40.5q-4 -25 -6 -43.5t-6 -34.5l-172 -979h-144z" />
<glyph unicode="N" horiz-adv-x="1427" d="M225 0l252 1434h133l461 -1104q2 -4 7 -16.5t12 -28.5q8 -18 16 -39q2 18 6 35q4 14 5 27.5t3 19.5l195 1106h143l-252 -1434h-145l-426 1020q-4 8 -14.5 31.5t-20.5 50.5q-12 31 -27 65q-6 -35 -12 -65q-4 -27 -8 -50.5t-6 -33.5l-178 -1018h-144z" />
<glyph unicode="O" horiz-adv-x="1458" d="M266 541q0 154 42 315.5t130 295.5t220.5 220t314.5 86q129 0 219 -49t146.5 -129t82 -181.5t25.5 -205.5q0 -154 -42 -315.5t-129 -296t-220.5 -220.5t-313.5 -86q-127 0 -217 47.5t-147.5 125t-84 180t-26.5 213.5zM410 541q0 -86 18 -165t58 -139.5t102.5 -96.5 t152.5 -36q143 0 250 74t175.5 189.5t102.5 255t34 270.5q0 80 -17.5 158.5t-57.5 140t-102.5 99.5t-152.5 38q-145 0 -251 -73.5t-175.5 -189.5t-103 -255t-33.5 -270z" />
<glyph unicode="P" horiz-adv-x="1265" d="M225 0l252 1434h496q104 0 176 -31t117 -81t65.5 -111.5t20.5 -123.5q0 -88 -28 -175t-87 -157.5t-155.5 -114.5t-231.5 -44h-377l-104 -596h-144zM494 717h372q94 0 161 32.5t109 85t60 117t18 125.5q0 37 -11 78t-38.5 76t-75 58.5t-118.5 23.5h-373z" />
<glyph unicode="Q" horiz-adv-x="1458" d="M266 541q0 154 42 315.5t130 295.5t220.5 220t314.5 86q129 0 219 -49t146.5 -129t82 -181.5t25.5 -205.5q0 -106 -20.5 -218t-61.5 -216.5t-102.5 -196.5t-145.5 -158l86 -182l-110 -55l-82 170q-59 -29 -126 -45.5t-143 -16.5q-127 0 -217 47.5t-147.5 125t-84 180 t-26.5 213.5zM410 541q0 -86 18 -165t58 -139.5t102.5 -96.5t152.5 -36q115 0 213 52l-73 157l110 56l66 -140q61 57 107 136t77 167.5t46.5 180.5t15.5 180q0 80 -17.5 158.5t-57.5 140t-102.5 99.5t-152.5 38q-145 0 -251 -73.5t-175.5 -189.5t-103 -255t-33.5 -270z" />
<glyph unicode="R" horiz-adv-x="1337" d="M225 0l252 1434h451q119 0 197.5 -34t126.5 -86t67.5 -116t19.5 -123q0 -74 -23.5 -145.5t-73.5 -130t-128 -97t-184 -51.5l227 -651h-147l-224 645h-305l-112 -645h-144zM506 774h352q100 0 166 27.5t105.5 70.5t56 96.5t16.5 102.5q0 41 -12 82t-44 75t-84 55.5 t-132 21.5h-332z" />
<glyph unicode="S" horiz-adv-x="1210" d="M207 266l131 51q78 -213 299 -213q154 0 243 78t89 228q0 86 -44 142t-109.5 98t-141.5 79t-141.5 83t-109.5 110.5t-44 162.5q0 80 30.5 149t88 118t138.5 77.5t181 28.5q74 0 134.5 -18.5t107.5 -48t78.5 -69.5t48.5 -83l-127 -55q-31 59 -88.5 102t-163.5 43 q-133 0 -209 -64.5t-76 -166.5q0 -76 44 -123t109.5 -85t143.5 -73t143.5 -85t109.5 -123.5t44 -186.5q0 -111 -38 -195t-104.5 -139t-155.5 -84t-193 -29q-84 0 -153 22.5t-122 62.5t-90 92.5t-53 113.5z" />
<glyph unicode="T" horiz-adv-x="1173" d="M371 1305l20 129h895l-20 -129h-377l-230 -1305h-143l229 1305h-374z" />
<glyph unicode="U" horiz-adv-x="1380" d="M293 387q0 35 3 76t11 84l156 887h143l-157 -899q-12 -78 -13 -142q0 -86 23.5 -142t62.5 -88t90.5 -45.5t106.5 -13.5q66 0 128 18.5t114.5 67t93.5 131t63 211.5l158 902h143l-157 -902q-53 -299 -187.5 -428t-359.5 -129q-92 0 -170 25t-133.5 75t-87 128t-31.5 184z " />
<glyph unicode="V" horiz-adv-x="1302" d="M381 1434h147l158 -1100q4 -23 6 -46.5t2 -33.5q4 14 12.5 32.5t16.5 35.5l541 1112h159l-721 -1434h-100z" />
<glyph unicode="W" horiz-adv-x="1669" d="M377 0v1434h139v-1026v-99q8 16 16 35q6 16 13.5 32.5t13.5 29.5l461 1028h108l101 -1043q0 -8 1 -22.5t3 -28.5q2 -16 4 -35q6 16 12 33q4 14 8.5 26.5t8.5 20.5l379 1049h153l-528 -1434h-127l-111 1057q-2 8 -2 17t-2 20q-2 10 -2 20q-4 -12 -10 -22q-4 -10 -8 -19.5 t-9 -15.5l-495 -1057h-127z" />
<glyph unicode="X" horiz-adv-x="1148" d="M109 0l528 760l-248 674h137l195 -553l379 553h155l-483 -693l270 -741h-135l-219 616l-422 -616h-157z" />
<glyph unicode="Y" horiz-adv-x="1255" d="M362 1434h146l235 -738l506 738h148l-606 -875l-99 -559h-137l100 573z" />
<glyph unicode="Z" horiz-adv-x="1296" d="M160 0l18 100l1012 1207h-754l21 127h932l-19 -105l-1001 -1202h790l-22 -127h-977z" />
<glyph unicode="[" horiz-adv-x="788" d="M201 -266l305 1724h412l-25 -129h-275l-258 -1466h275l-23 -129h-411z" />
<glyph unicode="\" horiz-adv-x="999" d="M281 1458h133l467 -1724h-133z" />
<glyph unicode="]" horiz-adv-x="788" d="M82 -266l22 129h275l258 1466h-275l25 129h412l-305 -1724h-412z" />
<glyph unicode="^" d="M350 741l502 717h149l252 -717h-141l-217 539l-403 -539h-142z" />
<glyph unicode="_" horiz-adv-x="1085" d="M-23 -362l27 157h1004l-27 -157h-1004z" />
<glyph unicode="`" horiz-adv-x="702" d="M279 1499h210l224 -319h-140z" />
<glyph unicode="a" horiz-adv-x="1089" d="M188 276q0 106 38 183.5t98.5 124.5t137.5 69.5t154 22.5q98 0 163 -25.5t102 -52.5l16 92q10 51 10 88q0 49 -15 82t-39 52.5t-54.5 26.5t-61.5 7q-43 0 -89 -10t-89 -26.5t-83 -36t-70 -39.5l-19 122q68 41 162 78t199 37q51 0 103 -13.5t95 -46t69.5 -85t26.5 -131.5 q0 -41 -10 -99l-123 -696h-133l15 86q-49 -41 -125 -76t-177 -35q-141 0 -221 83t-80 218zM322 291q0 -82 48 -136.5t144 -54.5q90 0 173 48.5t134 105.5l35 207q-31 25 -93.5 57.5t-148.5 32.5q-57 0 -109 -14.5t-93 -46t-65.5 -81t-24.5 -118.5z" />
<glyph unicode="b" horiz-adv-x="1146" d="M195 0l249 1417l154 62l-92 -516q45 39 113.5 73.5t164.5 34.5q76 0 138.5 -28.5t107.5 -82t70.5 -129t25.5 -169.5q0 -158 -36.5 -284t-104 -216t-159.5 -138.5t-203 -48.5q-98 0 -166 40t-103 81l-16 -96h-143zM383 258q29 -59 87 -106.5t144 -47.5q92 0 161 43 t115 117t69.5 173.5t23.5 213.5q0 135 -58.5 213t-168.5 78q-84 0 -158 -45t-121 -104z" />
<glyph unicode="c" horiz-adv-x="993" d="M205 399q0 154 37 278t102.5 211t158.5 135t206 48q115 0 197.5 -56.5t111.5 -162.5l-133 -51q-16 59 -61.5 100t-129.5 41q-90 0 -154.5 -46t-105.5 -123t-61.5 -174t-20.5 -200q0 -139 49.5 -217t153.5 -78q170 0 252 160l115 -49q-55 -111 -149.5 -175.5t-229.5 -64.5 q-76 0 -138.5 30t-106.5 85t-68.5 133t-24.5 176z" />
<glyph unicode="d" horiz-adv-x="1148" d="M205 430q0 145 39 264t109.5 203t166.5 129t213 45q98 0 158.5 -35t91.5 -69l80 450l154 62l-261 -1479h-143l14 88q-51 -53 -120.5 -83t-157.5 -30q-80 0 -144.5 33t-108.5 92.5t-67.5 143.5t-23.5 186zM354 424q0 -66 13.5 -124t41 -101t70 -69t101.5 -26q49 0 93 16.5 t79.5 40t62.5 52.5t45 53l92 527q-10 25 -27.5 50t-45 47.5t-65.5 37t-87 14.5q-90 0 -158.5 -38t-117 -107.5t-73 -164.5t-24.5 -208z" />
<glyph unicode="e" horiz-adv-x="1081" d="M205 414q0 141 39 262t108.5 208t163.5 137t205 50q78 0 143.5 -21.5t112.5 -68.5t73.5 -120t26.5 -177q0 -68 -12 -120t-27 -99h-686v-29q0 -154 58.5 -240.5t177.5 -86.5q55 0 115.5 18t125.5 63l64 -104q-68 -51 -150 -81t-172 -30q-86 0 -154.5 34t-115.5 93.5 t-71.5 139.5t-24.5 172zM371 594h553q14 55 14 102q0 74 -19.5 121t-50 75t-69.5 39t-78 11q-76 0 -135.5 -30.5t-102.5 -80t-70.5 -112t-41.5 -125.5z" />
<glyph unicode="f" horiz-adv-x="681" d="M217 918l23 129h174l32 188q23 129 91.5 176t160.5 47q57 0 94 -15.5t68 -33.5l-20 -125q-31 16 -64 28.5t-74 12.5q-33 0 -53 -11t-33.5 -28.5t-19.5 -40t-10 -43.5l-29 -155h240l-23 -129h-239l-162 -918h-144l162 918h-174z" />
<glyph unicode="g" horiz-adv-x="1150" d="M205 406q0 147 37 269t104.5 210t160.5 137t206 49q72 0 142.5 -28.5t123.5 -94.5l18 99h140l-189 -1063q-25 -133 -76 -214t-123.5 -126t-160.5 -60.5t-187 -19.5l-41 112q123 6 205 32t131 64t74 86t35 101l24 141q-39 -45 -105.5 -85t-172.5 -40q-82 0 -146.5 33 t-108.5 91.5t-67.5 136t-23.5 170.5zM350 420q0 -147 66 -231.5t172 -84.5q43 0 84 14.5t76.5 39t65.5 56.5t48 67l88 501q-23 66 -85 113t-148 47q-90 0 -157.5 -44t-115 -115.5t-71 -167t-23.5 -195.5z" />
<glyph unicode="h" horiz-adv-x="1146" d="M195 0l249 1417l154 62l-98 -551q59 70 129.5 106.5t156.5 36.5q147 0 220 -72.5t73 -232.5q0 -82 -18 -186l-103 -580h-139l113 639q4 29 7 52.5t3 45.5q0 111 -53 158t-137 47q-53 0 -101.5 -14.5t-87.5 -49t-68.5 -92t-43.5 -143.5l-113 -643h-143z" />
<glyph unicode="i" horiz-adv-x="534" d="M195 0l184 1047h143l-184 -1047h-143zM410 1341q0 47 32.5 80t73.5 33q39 0 60.5 -22.5t21.5 -57.5q0 -47 -34 -79.5t-75 -32.5q-35 0 -57 22.5t-22 56.5z" />
<glyph unicode="j" horiz-adv-x="550" d="M-94 -324q74 6 122 21.5t78.5 40t46 59.5t23.5 80l207 1170h143l-209 -1184q-16 -92 -52 -150.5t-85 -91.5t-108.5 -46t-120.5 -17zM416 1341q0 47 32.5 80t73.5 33q39 0 60.5 -22.5t21.5 -57.5q0 -47 -33.5 -79.5t-74.5 -32.5q-35 0 -57.5 22.5t-22.5 56.5z" />
<glyph unicode="k" horiz-adv-x="1050" d="M195 0l249 1417l154 62l-147 -832l432 400h168l-318 -293l250 -754h-160l-198 651l-207 -190l-80 -461h-143z" />
<glyph unicode="l" horiz-adv-x="555" d="M205 0l250 1417l153 62l-260 -1479h-143z" />
<glyph unicode="m" horiz-adv-x="1714" d="M195 0l184 1047h141l-18 -103q59 66 134 96.5t146 30.5q92 0 155.5 -42t92.5 -118q63 76 143 118t183 42q129 0 210 -78t81 -215q0 -43 -9 -82l-122 -696h-144l115 653q4 25 6 46.5t2 43.5q0 94 -43 146.5t-129 52.5q-49 0 -95 -20.5t-83 -58.5t-63.5 -90t-37.5 -116 l-116 -657h-144l115 653q4 25 6 47.5t2 42.5q0 96 -43 147.5t-131 51.5q-49 0 -95 -20.5t-83 -58.5t-63.5 -90t-36.5 -116l-117 -657h-143z" />
<glyph unicode="n" horiz-adv-x="1146" d="M195 0l184 1047h143l-20 -115q57 68 130 103.5t150 35.5q141 0 219 -82t78 -252q0 -35 -3 -74.5t-11 -82.5l-102 -580h-144l111 631q10 57 10 96q0 102 -48 158.5t-142 56.5q-53 0 -103.5 -22.5t-90.5 -62.5t-67.5 -97.5t-39.5 -124.5l-111 -635h-143z" />
<glyph unicode="o" horiz-adv-x="1120" d="M201 401q0 113 32.5 232t98 216t165 159.5t234.5 62.5q100 0 171 -37t116 -97t64.5 -137t19.5 -155q0 -113 -32 -231.5t-97.5 -216t-166 -160t-235.5 -62.5q-98 0 -168.5 36t-115.5 94.5t-65.5 135t-20.5 160.5zM344 401q0 -57 12.5 -110t40 -95t70.5 -67t104 -25 q98 0 172 50.5t121 129t70.5 175t23.5 186.5q0 55 -12 108.5t-38.5 95.5t-70.5 67.5t-106 25.5q-98 0 -171 -50t-121 -129t-71.5 -174t-23.5 -188z" />
<glyph unicode="p" horiz-adv-x="1157" d="M119 -416l258 1463h143l-16 -95q45 43 115.5 81t181.5 38q76 0 138 -30.5t106.5 -88t68 -137.5t23.5 -178q0 -154 -41 -276.5t-111 -208.5t-159 -131.5t-183 -45.5q-57 0 -102 12.5t-81 32t-61.5 43t-44.5 48.5l-82 -465zM381 266q43 -76 105.5 -119t148.5 -43 q80 0 144.5 38t110.5 107.5t71.5 164t25.5 209.5q0 147 -54 233t-167 86q-98 0 -172 -45t-121 -117z" />
<glyph unicode="q" horiz-adv-x="1153" d="M203 385q0 147 38 273t106.5 218.5t163.5 143.5t212 51q109 0 172 -41t88 -78l16 95h144l-246 -1395l-154 -62l91 516q-59 -59 -128 -95t-161 -36q-160 0 -251 109t-91 301zM350 397q0 -137 56 -215t167 -78q47 0 89.5 16.5t79 41t66.5 54.5l54 54l90 510q-29 86 -92 124 t-139 38q-80 0 -147.5 -43t-117.5 -116.5t-78 -173t-28 -212.5z" />
<glyph unicode="r" horiz-adv-x="804" d="M195 0l184 1047h143l-26 -148q72 92 151.5 132t145.5 40q80 0 122 -43l-45 -139q-18 12 -46.5 25.5t-78.5 13.5q-35 0 -79.5 -16.5t-89 -55.5t-81 -103.5t-53.5 -160.5l-104 -592h-143z" />
<glyph unicode="s" horiz-adv-x="954" d="M164 158l108 86q37 -57 99.5 -99.5t140.5 -42.5q92 0 158.5 45.5t66.5 133.5q0 55 -33.5 93t-86 67.5t-112 56t-111.5 64.5t-86 89t-34 131q0 68 27 121t73 91t108.5 57.5t133.5 19.5q121 0 204 -42t130 -118l-100 -77q-33 41 -88 75.5t-148 34.5q-88 0 -146 -43 t-58 -115q0 -51 34.5 -83.5t87 -60.5t113 -54.5t112.5 -66.5t87 -97t35 -145q0 -137 -101.5 -220.5t-269.5 -83.5q-123 0 -208 52.5t-136 130.5z" />
<glyph unicode="t" horiz-adv-x="768" d="M238 918l22 129h172l66 370l153 62l-76 -432h254l-22 -129h-254l-113 -642q-4 -20 -6 -39.5t-2 -35.5q0 -41 17.5 -65.5t68.5 -24.5t90 17t70 38l-43 -150q-43 -23 -85 -32t-99 -9q-90 0 -129 53.5t-39 131.5q0 33 6 69l121 689h-172z" />
<glyph unicode="u" horiz-adv-x="1144" d="M248 299q0 35 4 69.5t10 75.5l105 603h143l-113 -639q-4 -25 -6 -48.5t-2 -44.5q0 -115 55.5 -163t133.5 -48q51 0 99 14.5t88 49.5t69.5 92t46.5 143l112 644h144l-185 -1047h-143l18 100q-49 -66 -117.5 -95.5t-154.5 -29.5q-152 0 -229.5 82t-77.5 242z" />
<glyph unicode="v" horiz-adv-x="1032" d="M281 1047h141l117 -713q4 -33 10 -66q4 -20 6 -39q12 18 20 39q8 16 16.5 33.5t16.5 32.5l367 713h147l-549 -1047h-108z" />
<glyph unicode="w" horiz-adv-x="1427" d="M279 1047h137l41 -793q0 -12 1 -25.5t1 -25.5q0 -14 2 -29q6 16 14 31q6 12 11.5 25.5t9.5 23.5l350 793h100l82 -793q2 -16 3 -30.5t3 -24.5q2 -12 2 -25q4 12 11 27q4 12 9 25.5t11 27.5l307 793h144l-424 -1047h-140l-90 700q-2 10 -3 25.5t-3 28.5l-4 28 q-8 -18 -16 -34q-6 -14 -13.5 -30t-11.5 -24l-321 -694h-138z" />
<glyph unicode="x" horiz-adv-x="1030" d="M98 0l434 541l-223 506h156l168 -381l305 381h152l-404 -502l242 -545h-156l-186 420l-336 -420h-152z" />
<glyph unicode="y" horiz-adv-x="1048" d="M229 -397l226 430l-191 1014h148l123 -760q2 -14 4 -27.5t4 -23.5q2 -12 4 -25q-2 0 13 26.5t28 49.5l397 760h156l-766 -1444h-146z" />
<glyph unicode="z" horiz-adv-x="1024" d="M160 0l16 88l645 830h-461l23 129h657l-14 -86l-653 -832h504l-23 -129h-694z" />
<glyph unicode="{" horiz-adv-x="786" d="M244 539l20 116h8q68 0 120 63.5t71 168.5l33 186q16 92 56 164t97.5 121t129 74.5t155.5 25.5l-23 -121q-117 -4 -186.5 -85t-95.5 -228l-29 -160q-25 -147 -90.5 -207.5t-169.5 -60.5l-2 -8q29 -2 58.5 -11.5t54 -33t40 -63.5t15.5 -105q0 -49 -12 -119l-17 -88 q-4 -29 -7 -53.5t-3 -46.5q0 -100 45 -154.5t137 -58.5l-20 -121q-131 12 -214 93t-83 247q0 59 12 131l18 104q6 33 7 66q0 72 -31 118t-86 46h-8z" />
<glyph unicode="|" horiz-adv-x="573" d="M145 -420l365 2069h137l-364 -2069h-138z" />
<glyph unicode="}" horiz-adv-x="786" d="M63 -266l21 121q117 4 186.5 84.5t96.5 228.5l24 139q29 160 95.5 224.5t170.5 64.5l2 8q-74 14 -122 58.5t-48 146.5q0 49 13 121l16 94q4 29 7 55.5t3 48.5q0 98 -45 151.5t-137 57.5l23 121q143 -10 219 -89t76 -255q0 -37 -4.5 -77t-12.5 -85l-10 -59 q-4 -23 -7 -45.5t-3 -56.5q0 -66 28.5 -102t87.5 -36h9l-21 -116h-8q-68 0 -119 -61.5t-69 -166.5l-31 -170q-35 -199 -142.5 -302t-298.5 -103z" />
<glyph unicode="~" d="M313 567q8 51 30 99.5t57.5 85t86 59.5t117.5 23q61 0 117.5 -20.5t107 -44.5t98.5 -44t95 -20q66 0 113 35.5t63 93.5h78q-10 -53 -31.5 -101.5t-57.5 -85.5t-86 -58.5t-116 -21.5q-61 0 -115.5 20.5t-104.5 44t-99.5 44t-98.5 20.5q-66 0 -112.5 -34.5t-63.5 -94.5h-78 z" />
<glyph unicode="&#xa1;" horiz-adv-x="573" d="M139 -410l76 439l170 618h23l-52 -618l-75 -439h-142zM326 924q0 27 12 53.5t32.5 48t47 33.5t55.5 12q47 0 76 -33.5t29 -76.5q0 -29 -12.5 -54.5t-33 -47t-47 -34t-57.5 -12.5q-47 0 -74.5 34t-27.5 77z" />
<glyph unicode="&#xa2;" horiz-adv-x="1048" d="M260 575q0 281 118 457t316 221l37 205h137l-37 -198q100 -10 164 -61.5t82 -158.5l-143 -53q-12 59 -52 97t-112 38q-92 0 -160.5 -40t-113.5 -111.5t-67.5 -168.5t-22.5 -210q0 -129 52 -206t160 -77q74 0 135.5 42t94.5 116l125 -49q-106 -229 -332 -248l-35 -195 h-137l35 199q-117 27 -180.5 133.5t-63.5 267.5z" />
<glyph unicode="&#xa3;" horiz-adv-x="1230" d="M209 0l29 162q57 25 104 76t81 114.5t52.5 132t22.5 129.5h-191l21 117h159q-16 49 -32.5 104.5t-16.5 133.5q0 98 34 187t99.5 156.5t164 106.5t227.5 39t215 -37t149 -96l-76 -131q-18 18 -42.5 39.5t-61.5 41t-88 33t-121 13.5q-88 0 -152.5 -27.5t-107.5 -73.5 t-64.5 -106.5t-21.5 -124.5q0 -88 21.5 -147.5t29.5 -110.5h322l-21 -117h-295q-10 -141 -91 -261t-206 -220h791l-23 -133h-911z" />
<glyph unicode="&#xa4;" horiz-adv-x="1292" d="M166 246l158 139q-16 37 -24.5 90t-8.5 100q0 111 31.5 209.5t103.5 196.5l-107 137l117 107l107 -133q66 45 143.5 71.5t167.5 26.5q88 0 157.5 -25.5t118.5 -70.5l150 131l86 -113l-152 -133q16 -39 22.5 -90t6.5 -94q0 -117 -33.5 -219.5t-107.5 -196.5l110 -139 l-116 -105l-109 137q-133 -96 -311 -96t-275 94l-151 -135zM434 610q0 -63 18.5 -117.5t52.5 -94.5t84 -62.5t111 -22.5q86 0 159 34t126 92.5t83 139t30 175.5q0 63 -18.5 117.5t-52.5 94.5t-83 63.5t-113 23.5q-84 0 -155.5 -34t-125.5 -94.5t-85 -141.5t-31 -173z" />
<glyph unicode="&#xa5;" horiz-adv-x="1140" d="M223 252l21 123h323l25 135h-324l21 123h327l-284 801h153l217 -664l467 664h142l-568 -801h306l-21 -123h-299l-24 -135h299l-21 -123h-299l-45 -252h-137l45 252h-324z" />
<glyph unicode="&#xa6;" horiz-adv-x="573" d="M176 -246l117 666h67h70l-117 -666h-137zM360 805l119 670h137l-118 -670h-138z" />
<glyph unicode="&#xa7;" horiz-adv-x="1110" d="M137 -70l121 97q10 -18 31.5 -41t56.5 -43.5t82 -34.5t111 -14q133 0 214 46t81 162q0 55 -33 94.5t-82 68t-104.5 51t-98.5 44.5q-47 23 -88 45.5t-73.5 52t-51 67.5t-18.5 89q0 102 56 170t136 95q-53 33 -78.5 91t-25.5 128q0 88 36.5 155.5t97 113.5t138.5 68.5 t162 22.5q76 0 133 -15.5t98 -39t69 -52t44 -55.5l-123 -88q-12 16 -29.5 35t-47 35t-71.5 26.5t-100 10.5q-119 0 -188.5 -46t-69.5 -136q0 -39 22.5 -70t61.5 -57.5t92.5 -50t112.5 -48.5q49 -23 96 -45t82 -55t56.5 -76t21.5 -104q0 -92 -38 -162t-128 -111 q43 -39 62.5 -93t19.5 -111q0 -94 -32.5 -168t-94 -124.5t-146.5 -77t-190 -26.5q-76 0 -138.5 15.5t-110.5 40t-81.5 56.5t-52.5 64zM436 641q0 -43 32 -74.5t82 -56.5t111.5 -46.5t122.5 -45.5q61 25 98.5 66t37.5 104q0 41 -24 72.5t-63.5 56t-92 47t-111.5 45.5 q-90 -14 -141.5 -58t-51.5 -110z" />
<glyph unicode="&#xa8;" horiz-adv-x="702" d="M416 1343q0 47 33.5 79t76.5 32q35 0 56.5 -22.5t21.5 -57.5q0 -47 -32.5 -79.5t-77.5 -32.5q-35 0 -56.5 23.5t-21.5 57.5zM741 1343q0 47 36 79t77 32q35 0 56.5 -22.5t21.5 -57.5q0 -47 -34 -79.5t-77 -32.5q-35 0 -57.5 23.5t-22.5 57.5z" />
<glyph unicode="&#xa9;" horiz-adv-x="1761" d="M258 717q0 158 56.5 293t156.5 235.5t235.5 156.5t292.5 56q158 0 293 -56t235.5 -156.5t157 -236t56.5 -292.5q0 -158 -56.5 -293t-157 -235.5t-235.5 -157t-293 -56.5t-293 56.5t-235 157t-156.5 235.5t-56.5 293zM375 717q0 -135 47 -250t131 -200t197.5 -133 t248.5 -48t249 48t197 133t129 200t46 250t-46 249.5t-129 198.5t-196.5 132.5t-249.5 48.5q-135 0 -248.5 -48.5t-197.5 -132.5t-131 -198.5t-47 -249.5zM639 727q0 205 101.5 326t287.5 121q111 0 187.5 -59.5t115.5 -166.5l-129 -53q-20 59 -67.5 102t-124.5 43 q-68 0 -113 -21.5t-70.5 -62.5t-37 -98t-11.5 -131q0 -160 50.5 -237.5t187.5 -77.5q72 0 129 36.5t76 129.5l116 -48q-35 -121 -121 -184t-204 -63q-174 0 -273.5 113.5t-99.5 330.5z" />
<glyph unicode="&#xaa;" horiz-adv-x="952" d="M264 799q0 88 36 152.5t92.5 106.5t124 61.5t130.5 19.5q49 0 107.5 -13.5t99.5 -33.5l4 24q6 37 8 54.5t2 33.5q0 70 -43 99.5t-129 29.5q-76 0 -136 -21.5t-107 -54.5l-13 121q51 35 128 57.5t169 22.5q43 0 90 -10t86 -34.5t65 -66.5t26 -108q0 -23 -3.5 -49.5 t-11.5 -71.5l-94 -538h-133l12 63q-45 -33 -111.5 -58.5t-138.5 -25.5q-111 0 -185.5 64.5t-74.5 175.5zM410 819q0 -63 38.5 -101t110.5 -38q31 0 63.5 8t64.5 21.5t60.5 31t49.5 33.5l32 189q-37 23 -92 38t-98 15q-41 0 -82 -11.5t-73.5 -35t-53 -60.5t-20.5 -90z" />
<glyph unicode="&#xab;" horiz-adv-x="1038" d="M203 524l391 523h154l-392 -529l207 -518h-153zM594 524l391 523h158l-391 -529l206 -518h-88h-69z" />
<glyph unicode="&#xac;" d="M305 811v137h963v-588h-148v451h-815z" />
<glyph unicode="&#xad;" horiz-adv-x="835" d="M295 541l24 139h439l-25 -139h-438z" />
<glyph unicode="&#xae;" horiz-adv-x="1761" d="M258 717q0 158 56.5 293t156.5 235.5t235.5 156.5t292.5 56q158 0 293 -56t235.5 -156.5t157 -236t56.5 -292.5q0 -158 -56.5 -293t-157 -235.5t-235.5 -157t-293 -56.5t-293 56.5t-235 157t-156.5 235.5t-56.5 293zM375 717q0 -135 47 -250t131 -200t197.5 -133 t248.5 -48t249 48t197 133t129 200t46 250t-46 249.5t-129 198.5t-196.5 132.5t-249.5 48.5q-135 0 -248.5 -48.5t-197.5 -132.5t-131 -198.5t-47 -249.5zM688 281v866h424q63 0 109.5 -24.5t74 -61.5t41 -81t13.5 -83q0 -92 -56.5 -169t-158.5 -93l208 -354h-147l-195 352 h-180v-352h-133zM821 748h295q47 0 76 43t29 102q0 20 -6.5 44t-19.5 43t-32.5 31.5t-46.5 12.5h-295v-276z" />
<glyph unicode="&#xaf;" horiz-adv-x="702" d="M322 1247l22 125h649l-22 -125h-649z" />
<glyph unicode="&#xb0;" horiz-adv-x="864" d="M317 1208q0 86 33 158t88.5 125t128 83t150.5 30q61 0 112.5 -21.5t87 -59.5t56 -90.5t20.5 -113.5q0 -84 -32.5 -156.5t-88 -126t-127 -84t-149.5 -30.5q-61 0 -112.5 22.5t-88.5 60t-57.5 90t-20.5 113.5zM465 1231q0 -72 44 -120t114 -48q45 0 85 18.5t70.5 50 t48 75.5t17.5 96q0 72 -41 117.5t-111 45.5q-43 0 -84 -17t-72.5 -49t-51 -75t-19.5 -94z" />
<glyph unicode="&#xb1;" d="M313 0v137h963v-137h-963zM313 764v137h406v344h147v-344h410v-137h-410v-344h-147v344h-406z" />
<glyph unicode="&#xb2;" horiz-adv-x="770" d="M260 909q14 82 46 141.5t78 105.5t106.5 86t132.5 85q86 53 130 103.5t44 132.5q0 20 -7.5 41.5t-22.5 39t-40 28.5t-61 11q-72 0 -117 -35.5t-74 -107.5l-94 43q35 88 105.5 146.5t187.5 58.5t181.5 -62.5t64.5 -160.5q0 -59 -16.5 -106.5t-51.5 -87.5t-90 -79t-133 -84 q-86 -49 -134.5 -92t-78.5 -98h407l-20 -109h-543z" />
<glyph unicode="&#xb3;" horiz-adv-x="765" d="M283 1100l116 47q16 -74 56.5 -115t105.5 -41q88 0 137.5 50.5t49.5 125.5q0 49 -29 90t-84 41h-68l19 103h43q41 0 70.5 15.5t48 40t27.5 54t9 60.5q0 43 -26.5 79t-85.5 36q-55 0 -105.5 -38t-83.5 -94l-98 37q47 84 131 140.5t182 56.5t156.5 -51t58.5 -140 q0 -72 -42 -136t-107 -93q51 -18 82 -63t31 -109q0 -72 -26 -128t-70 -96t-105.5 -61.5t-130.5 -21.5q-113 0 -177.5 58.5t-84.5 152.5z" />
<glyph unicode="&#xb4;" horiz-adv-x="702" d="M508 1180l336 319h209l-404 -319h-141z" />
<glyph unicode="&#xb5;" horiz-adv-x="1155" d="M119 -416l258 1463h143l-112 -635q-4 -29 -8.5 -54.5t-4.5 -66.5q0 -31 9.5 -64.5t31 -60.5t58 -44.5t94.5 -17.5q47 0 95 16.5t89 51.5t71.5 92.5t45.5 138.5l112 644h140l-185 -1047h-139l23 119q-61 -84 -138 -114t-145 -30q-59 0 -118.5 29t-86.5 98l-80 -456z" />
<glyph unicode="&#xb6;" horiz-adv-x="1288" d="M260 936q0 84 27.5 172t90 160.5t164 119t249.5 46.5h540l-289 -1643l-151 -65l276 1564h-200l-289 -1634l-150 -66l172 979q-125 0 -209.5 34t-136 86t-73 117.5t-21.5 129.5z" />
<glyph unicode="&#xb7;" horiz-adv-x="487" d="M246 696q0 27 12 53.5t32.5 48t47.5 34t55 12.5q47 0 75 -34t28 -77q0 -29 -12.5 -54.5t-33 -47t-47 -33.5t-57.5 -12q-47 0 -73.5 33.5t-26.5 76.5z" />
<glyph unicode="&#xb8;" horiz-adv-x="702" d="M123 -406l92 56q10 -10 25.5 -20.5t50.5 -10.5q45 0 81 31t36 78q0 43 -29 68.5t-76 25.5q-51 0 -72 -10l-20 30l166 178h82l-103 -133q100 0 140.5 -45t40.5 -102q0 -102 -71 -160.5t-175 -58.5q-66 0 -106 22.5t-62 50.5z" />
<glyph unicode="&#xb9;" horiz-adv-x="436" d="M324 909l116 664h-92l17 88q53 0 88.5 30.5t60.5 82.5h80l-154 -865h-116z" />
<glyph unicode="&#xba;" horiz-adv-x="964" d="M276 901q0 127 35 230.5t96.5 176t146.5 111.5t185 39q147 0 226 -93t79 -253q0 -129 -33.5 -231.5t-95 -174t-146.5 -110.5t-189 -39q-143 0 -223.5 92t-80.5 252zM416 924q0 -109 49 -171.5t137 -62.5q76 0 133.5 30t95 84t56 129t18.5 165q0 106 -47 166.5t-143 60.5 q-133 0 -216 -107.5t-83 -293.5z" />
<glyph unicode="&#xbb;" horiz-adv-x="1038" d="M80 0l391 524l-207 523h154l207 -523l-392 -524h-153zM471 0l391 524l-207 523h158l207 -523l-391 -524h-158z" />
<glyph unicode="&#xbc;" horiz-adv-x="1421" d="M55 -25l1202 1483h136l-1203 -1483h-135zM286 580l117 663h-92l16 88q53 0 88 31t60 82h82l-152 -864h-119zM698 221l11 62l544 583h93l-95 -532h103l-21 -113h-102l-39 -221h-121l39 221h-412zM879 334h251l62 352z" />
<glyph unicode="&#xbd;" horiz-adv-x="1521" d="M55 -25l1202 1483h136l-1203 -1483h-135zM286 580l117 663h-92l16 88q53 0 88 31t60 82h82l-152 -864h-119zM823 0q14 82 46 141.5t78 105.5t106.5 86t132.5 85q86 53 130 103t44 132q0 20 -7 42t-22.5 39.5t-40 28.5t-61.5 11q-72 0 -117 -36t-74 -107l-94 43 q35 88 105.5 146.5t187.5 58.5t181.5 -62.5t64.5 -161.5q0 -59 -16.5 -106t-51.5 -87t-90 -79t-133 -84q-86 -49 -134 -92t-79 -98h408l-21 -109h-543z" />
<glyph unicode="&#xbe;" horiz-adv-x="1716" d="M223 766l117 47q16 -74 57 -115t107 -41q86 0 135 51.5t49 127.5q0 49 -27.5 91t-84.5 42h-68l18 102h43q41 0 71 15.5t49.5 40t28.5 54t9 60.5q0 43 -26.5 79t-86.5 36q-55 0 -105 -38t-85 -93l-96 37q47 84 131 140t182 56t156.5 -51t58.5 -139q0 -72 -42 -136.5 t-109 -93.5q53 -18 82.5 -63t29.5 -109q0 -72 -25.5 -129t-69.5 -98t-105.5 -62.5t-131.5 -21.5q-113 0 -177 58.5t-85 152.5zM348 -25l1202 1483h136l-1203 -1483h-135zM991 221l11 62l544 583h93l-95 -532h103l-21 -113h-102l-39 -221h-121l39 221h-412zM1172 334h251 l62 352z" />
<glyph unicode="&#xbf;" horiz-adv-x="1077" d="M111 -94q0 106 31.5 178t80.5 123t108.5 93t114 87t97.5 104.5t61 147.5l4 20h142l-5 -20q-20 -102 -64 -172t-98.5 -122t-112.5 -93t-105.5 -86t-78 -101.5t-30.5 -138.5q0 -84 58.5 -143t174.5 -59q147 0 244.5 85t126.5 240h139q-18 -102 -67 -187t-120 -145.5 t-160 -93.5t-187 -33q-88 0 -154.5 25t-110.5 68t-66.5 100t-22.5 123zM608 924q0 27 12.5 53.5t33 48t47 33.5t55.5 12q49 0 76.5 -33.5t27.5 -76.5q0 -29 -12 -54.5t-32.5 -47t-47 -34t-57.5 -12.5q-47 0 -75 34t-28 77z" />
<glyph unicode="&#xc0;" horiz-adv-x="1345" d="M131 0l729 1434h115l231 -1434h-139l-59 371h-539l-186 -371h-152zM532 498h457l-90 573q-4 27 -10 68t-8 61q-8 -20 -26.5 -60t-33.5 -69zM635 1888h210l224 -319h-140z" />
<glyph unicode="&#xc1;" horiz-adv-x="1345" d="M131 0l729 1434h115l231 -1434h-139l-59 371h-539l-186 -371h-152zM532 498h457l-90 573q-4 27 -10 68t-8 61q-8 -20 -26.5 -60t-33.5 -69zM780 1569l336 319h209l-404 -319h-141z" />
<glyph unicode="&#xc2;" horiz-adv-x="1345" d="M131 0l729 1434h115l231 -1434h-139l-59 371h-539l-186 -371h-152zM532 498h457l-90 573q-4 27 -10 68t-8 61q-8 -20 -26.5 -60t-33.5 -69zM583 1569l332 319h158l223 -319h-129l-192 206l-265 -206h-127z" />
<glyph unicode="&#xc3;" horiz-adv-x="1345" d="M131 0l729 1434h115l231 -1434h-139l-59 371h-539l-186 -371h-152zM532 498h457l-90 573q-4 27 -10 68t-8 61q-8 -20 -26.5 -60t-33.5 -69zM614 1630q18 109 72.5 167t148.5 58q51 0 92 -16t76 -35.5t67.5 -36t69.5 -16.5t69 24.5t44 71.5h74q-20 -109 -75 -167t-147 -58 q-53 0 -93 16.5t-75.5 35t-68.5 34.5t-70 16t-67.5 -23.5t-40.5 -70.5h-76z" />
<glyph unicode="&#xc4;" horiz-adv-x="1345" d="M131 0l729 1434h115l231 -1434h-139l-59 371h-539l-186 -371h-152zM532 498h457l-90 573q-4 27 -10 68t-8 61q-8 -20 -26.5 -60t-33.5 -69zM711 1712q0 47 33.5 79t76.5 32q35 0 56.5 -22.5t21.5 -57.5q0 -47 -32.5 -79.5t-77.5 -32.5q-35 0 -56.5 23.5t-21.5 57.5z M1036 1712q0 47 36 79t77 32q35 0 56.5 -22.5t21.5 -57.5q0 -47 -34 -79.5t-77 -32.5q-35 0 -57.5 23.5t-22.5 57.5z" />
<glyph unicode="&#xc5;" horiz-adv-x="1345" d="M131 0l674 1325q-39 25 -62.5 72t-23.5 100q0 55 22.5 102.5t60.5 83t86 56t97 20.5q84 0 138.5 -56t54.5 -138q0 -84 -54.5 -150.5t-128.5 -97.5l211 -1317h-139l-59 371h-539l-186 -371h-152zM532 498h457l-90 573q-4 27 -10 68t-8 61q-8 -20 -26.5 -60t-33.5 -69z M836 1511q0 -43 24.5 -73.5t63.5 -30.5q53 0 94 43t41 104q0 41 -25.5 70t-66.5 29q-49 0 -90 -41t-41 -101z" />
<glyph unicode="&#xc6;" horiz-adv-x="1763" d="M4 0l1053 1434h755l-20 -129h-530l-88 -498h342l-25 -129h-340l-96 -549h573l-22 -129h-717l65 371h-510l-268 -371h-172zM537 498h440l143 817q-16 -25 -38.5 -57.5t-45.5 -63.5z" />
<glyph unicode="&#xc7;" horiz-adv-x="1308" d="M266 541q0 170 45 334.5t135.5 293.5t225.5 209t315 80q92 0 156.5 -19.5t108.5 -52t71 -74.5t45 -85l-137 -74q-16 35 -38 66.5t-52.5 56t-73.5 40t-102 15.5q-143 0 -248 -73.5t-172.5 -187.5t-100 -250t-32.5 -261q0 -88 18.5 -170t59 -145.5t104 -101.5t154.5 -38 q125 0 206.5 50.5t145.5 132.5l110 -49q-31 -47 -73.5 -92.5t-99 -81t-126 -59t-151.5 -28.5l-66 -90q49 0 84 -12t55.5 -31.5t29.5 -45t9 -50.5q0 -49 -20.5 -91t-56 -71.5t-83 -47t-98.5 -17.5q-57 0 -97 15t-66 42l102 62q8 -16 22.5 -18.5t42.5 -2.5q47 0 86 34t39 81 q0 35 -31.5 61.5t-72.5 26.5q-51 0 -72 -10l-20 30l127 135q-111 8 -188.5 59.5t-126 129.5t-71 175t-22.5 200z" />
<glyph unicode="&#xc8;" horiz-adv-x="1214" d="M225 0l252 1434h787l-21 -129h-645l-88 -498h436l-24 -129h-435l-96 -549h688l-22 -129h-832zM607 1888h210l224 -319h-140z" />
<glyph unicode="&#xc9;" horiz-adv-x="1214" d="M225 0l252 1434h787l-21 -129h-645l-88 -498h436l-24 -129h-435l-96 -549h688l-22 -129h-832zM758 1569l336 319h209l-404 -319h-141z" />
<glyph unicode="&#xca;" horiz-adv-x="1214" d="M225 0l252 1434h787l-21 -129h-645l-88 -498h436l-24 -129h-435l-96 -549h688l-22 -129h-832zM532 1569l332 319h158l223 -319h-129l-192 206l-265 -206h-127z" />
<glyph unicode="&#xcb;" horiz-adv-x="1214" d="M225 0l252 1434h787l-21 -129h-645l-88 -498h436l-24 -129h-435l-96 -549h688l-22 -129h-832zM647 1712q0 47 33.5 79t76.5 32q35 0 56.5 -22.5t21.5 -57.5q0 -47 -32.5 -79.5t-77.5 -32.5q-35 0 -56.5 23.5t-21.5 57.5zM972 1712q0 47 36 79t77 32q35 0 56.5 -22.5 t21.5 -57.5q0 -47 -34 -79.5t-77 -32.5q-35 0 -57.5 23.5t-22.5 57.5z" />
<glyph unicode="&#xcc;" horiz-adv-x="593" d="M225 0l252 1434h144l-252 -1434h-144zM259 1888h210l224 -319h-140z" />
<glyph unicode="&#xcd;" horiz-adv-x="593" d="M225 0l252 1434h144l-252 -1434h-144zM426 1569l336 319h209l-404 -319h-141z" />
<glyph unicode="&#xce;" horiz-adv-x="593" d="M206 1569l332 319h158l223 -319h-129l-192 206l-265 -206h-127zM225 0l252 1434h144l-252 -1434h-144z" />
<glyph unicode="&#xcf;" horiz-adv-x="593" d="M225 0l252 1434h144l-252 -1434h-144zM338 1712q0 47 33.5 79t76.5 32q35 0 56.5 -22.5t21.5 -57.5q0 -47 -32.5 -79.5t-77.5 -32.5q-35 0 -56.5 23.5t-21.5 57.5zM663 1712q0 47 36 79t77 32q35 0 56.5 -22.5t21.5 -57.5q0 -47 -34 -79.5t-77 -32.5q-35 0 -57.5 23.5 t-22.5 57.5z" />
<glyph unicode="&#xd0;" horiz-adv-x="1376" d="M205 651l22 127h135l115 656h363q139 0 238.5 -50.5t163 -134.5t93 -191.5t29.5 -221.5q0 -80 -14.5 -174.5t-48 -186.5t-91 -178t-144.5 -152.5t-206 -105.5t-274 -39h-361l115 651h-135zM391 129h227q176 0 292 69.5t185.5 175t97.5 229.5t28 233q0 88 -21.5 172 t-68 149.5t-117 106.5t-168.5 41h-248l-92 -527h303l-23 -127h-303z" />
<glyph unicode="&#xd1;" horiz-adv-x="1427" d="M225 0l252 1434h133l461 -1104q2 -4 7 -16.5t12 -28.5q8 -18 16 -39q2 18 6 35q4 14 5 27.5t3 19.5l195 1106h143l-252 -1434h-145l-426 1020q-4 8 -14.5 31.5t-20.5 50.5q-12 31 -27 65q-6 -35 -12 -65q-4 -27 -8 -50.5t-6 -33.5l-178 -1018h-144zM653 1630 q18 109 72.5 167t148.5 58q51 0 92 -16t76 -35.5t67.5 -36t69.5 -16.5t69 24.5t44 71.5h74q-20 -109 -75 -167t-147 -58q-53 0 -93 16.5t-75.5 35t-68.5 34.5t-70 16t-67.5 -23.5t-40.5 -70.5h-76z" />
<glyph unicode="&#xd2;" horiz-adv-x="1458" d="M266 541q0 154 42 315.5t130 295.5t220.5 220t314.5 86q129 0 219 -49t146.5 -129t82 -181.5t25.5 -205.5q0 -154 -42 -315.5t-129 -296t-220.5 -220.5t-313.5 -86q-127 0 -217 47.5t-147.5 125t-84 180t-26.5 213.5zM410 541q0 -86 18 -165t58 -139.5t102.5 -96.5 t152.5 -36q143 0 250 74t175.5 189.5t102.5 255t34 270.5q0 80 -17.5 158.5t-57.5 140t-102.5 99.5t-152.5 38q-145 0 -251 -73.5t-175.5 -189.5t-103 -255t-33.5 -270zM695 1888h210l224 -319h-140z" />
<glyph unicode="&#xd3;" horiz-adv-x="1458" d="M266 541q0 154 42 315.5t130 295.5t220.5 220t314.5 86q129 0 219 -49t146.5 -129t82 -181.5t25.5 -205.5q0 -154 -42 -315.5t-129 -296t-220.5 -220.5t-313.5 -86q-127 0 -217 47.5t-147.5 125t-84 180t-26.5 213.5zM410 541q0 -86 18 -165t58 -139.5t102.5 -96.5 t152.5 -36q143 0 250 74t175.5 189.5t102.5 255t34 270.5q0 80 -17.5 158.5t-57.5 140t-102.5 99.5t-152.5 38q-145 0 -251 -73.5t-175.5 -189.5t-103 -255t-33.5 -270zM903 1569l336 319h209l-404 -319h-141z" />
<glyph unicode="&#xd4;" horiz-adv-x="1458" d="M266 541q0 154 42 315.5t130 295.5t220.5 220t314.5 86q129 0 219 -49t146.5 -129t82 -181.5t25.5 -205.5q0 -154 -42 -315.5t-129 -296t-220.5 -220.5t-313.5 -86q-127 0 -217 47.5t-147.5 125t-84 180t-26.5 213.5zM410 541q0 -86 18 -165t58 -139.5t102.5 -96.5 t152.5 -36q143 0 250 74t175.5 189.5t102.5 255t34 270.5q0 80 -17.5 158.5t-57.5 140t-102.5 99.5t-152.5 38q-145 0 -251 -73.5t-175.5 -189.5t-103 -255t-33.5 -270zM673 1569l332 319h158l223 -319h-129l-192 206l-265 -206h-127z" />
<glyph unicode="&#xd5;" horiz-adv-x="1458" d="M266 541q0 154 42 315.5t130 295.5t220.5 220t314.5 86q129 0 219 -49t146.5 -129t82 -181.5t25.5 -205.5q0 -154 -42 -315.5t-129 -296t-220.5 -220.5t-313.5 -86q-127 0 -217 47.5t-147.5 125t-84 180t-26.5 213.5zM410 541q0 -86 18 -165t58 -139.5t102.5 -96.5 t152.5 -36q143 0 250 74t175.5 189.5t102.5 255t34 270.5q0 80 -17.5 158.5t-57.5 140t-102.5 99.5t-152.5 38q-145 0 -251 -73.5t-175.5 -189.5t-103 -255t-33.5 -270zM686 1630q18 109 72.5 167t148.5 58q51 0 92 -16t76 -35.5t67.5 -36t69.5 -16.5t69 24.5t44 71.5h74 q-20 -109 -75 -167t-147 -58q-53 0 -93 16.5t-75.5 35t-68.5 34.5t-70 16t-67.5 -23.5t-40.5 -70.5h-76z" />
<glyph unicode="&#xd6;" horiz-adv-x="1458" d="M266 541q0 154 42 315.5t130 295.5t220.5 220t314.5 86q129 0 219 -49t146.5 -129t82 -181.5t25.5 -205.5q0 -154 -42 -315.5t-129 -296t-220.5 -220.5t-313.5 -86q-127 0 -217 47.5t-147.5 125t-84 180t-26.5 213.5zM410 541q0 -86 18 -165t58 -139.5t102.5 -96.5 t152.5 -36q143 0 250 74t175.5 189.5t102.5 255t34 270.5q0 80 -17.5 158.5t-57.5 140t-102.5 99.5t-152.5 38q-145 0 -251 -73.5t-175.5 -189.5t-103 -255t-33.5 -270zM776 1712q0 47 33.5 79t76.5 32q35 0 56.5 -22.5t21.5 -57.5q0 -47 -32.5 -79.5t-77.5 -32.5 q-35 0 -56.5 23.5t-21.5 57.5zM1101 1712q0 47 36 79t77 32q35 0 56.5 -22.5t21.5 -57.5q0 -47 -34 -79.5t-77 -32.5q-35 0 -57.5 23.5t-22.5 57.5z" />
<glyph unicode="&#xd7;" d="M340 350l356 355l-354 348l100 98l351 -350l350 352l102 -104l-352 -349l350 -354l-96 -96l-350 350l-351 -352z" />
<glyph unicode="&#xd8;" horiz-adv-x="1458" d="M178 -25l164 201q-20 35 -34.5 80t-24 94t-13.5 97.5t-4 91.5q0 100 17.5 207.5t54.5 210t95.5 193.5t138 159.5t183 108.5t232.5 40q104 0 180 -29.5t129 -80.5l93 110h145l-164 -201q20 -35 34.5 -79.5t24 -94t13.5 -99.5t4 -93q0 -150 -40 -311.5t-126 -295.5 t-223 -221.5t-332 -87.5q-104 0 -182 30t-133 81l-91 -111h-141zM410 547q0 -27 2 -59.5t6 -66.5t10 -64.5t16 -53.5l760 930q-41 45 -100.5 70.5t-140.5 25.5q-143 0 -248 -73.5t-172.5 -188.5t-100 -253t-32.5 -267zM504 201q41 -45 100.5 -71t143.5 -26q145 0 249.5 74 t172 187.5t100.5 251t33 264.5q0 27 -2.5 60.5t-7.5 67t-12 65.5t-17 56z" />
<glyph unicode="&#xd9;" horiz-adv-x="1380" d="M293 387q0 35 3 76t11 84l156 887h143l-157 -899q-12 -78 -13 -142q0 -86 23.5 -142t62.5 -88t90.5 -45.5t106.5 -13.5q66 0 128 18.5t114.5 67t93.5 131t63 211.5l158 902h143l-157 -902q-53 -299 -187.5 -428t-359.5 -129q-92 0 -170 25t-133.5 75t-87 128t-31.5 184z M670 1888h210l224 -319h-140z" />
<glyph unicode="&#xda;" horiz-adv-x="1380" d="M293 387q0 35 3 76t11 84l156 887h143l-157 -899q-12 -78 -13 -142q0 -86 23.5 -142t62.5 -88t90.5 -45.5t106.5 -13.5q66 0 128 18.5t114.5 67t93.5 131t63 211.5l158 902h143l-157 -902q-53 -299 -187.5 -428t-359.5 -129q-92 0 -170 25t-133.5 75t-87 128t-31.5 184z M858 1569l336 319h209l-404 -319h-141z" />
<glyph unicode="&#xdb;" horiz-adv-x="1380" d="M293 387q0 35 3 76t11 84l156 887h143l-157 -899q-12 -78 -13 -142q0 -86 23.5 -142t62.5 -88t90.5 -45.5t106.5 -13.5q66 0 128 18.5t114.5 67t93.5 131t63 211.5l158 902h143l-157 -902q-53 -299 -187.5 -428t-359.5 -129q-92 0 -170 25t-133.5 75t-87 128t-31.5 184z M596 1569l332 319h158l223 -319h-129l-192 206l-265 -206h-127z" />
<glyph unicode="&#xdc;" horiz-adv-x="1380" d="M293 387q0 35 3 76t11 84l156 887h143l-157 -899q-12 -78 -13 -142q0 -86 23.5 -142t62.5 -88t90.5 -45.5t106.5 -13.5q66 0 128 18.5t114.5 67t93.5 131t63 211.5l158 902h143l-157 -902q-53 -299 -187.5 -428t-359.5 -129q-92 0 -170 25t-133.5 75t-87 128t-31.5 184z M733 1712q0 47 33.5 79t76.5 32q35 0 56.5 -22.5t21.5 -57.5q0 -47 -32.5 -79.5t-77.5 -32.5q-35 0 -56.5 23.5t-21.5 57.5zM1058 1712q0 47 36 79t77 32q35 0 56.5 -22.5t21.5 -57.5q0 -47 -34 -79.5t-77 -32.5q-35 0 -57.5 23.5t-22.5 57.5z" />
<glyph unicode="&#xdd;" horiz-adv-x="1255" d="M362 1434h146l235 -738l506 738h148l-606 -875l-99 -559h-137l100 573zM791 1569l336 319h209l-404 -319h-141z" />
<glyph unicode="&#xde;" horiz-adv-x="1265" d="M227 0l252 1434h139l-49 -285h365q104 0 175 -28.5t114 -77t61.5 -109t18.5 -123.5q0 -84 -30 -173t-92.5 -163t-160.5 -121t-236 -47h-364l-53 -307h-140zM444 436h377q94 0 160 33t107.5 83t60 110.5t18.5 117.5q0 39 -11 81t-38.5 78t-75 58.5t-118.5 22.5h-377z" />
<glyph unicode="&#xdf;" horiz-adv-x="1157" d="M104 -416l246 1395q23 131 74 222t116.5 148.5t140.5 83t144 25.5q152 0 241 -86t89 -223q0 -119 -61.5 -220.5t-186.5 -140.5q102 -39 151.5 -118.5t49.5 -177.5q0 -113 -40 -207.5t-107.5 -163t-157.5 -107.5t-193 -39q-45 0 -85 9.5t-64 23.5l82 111q39 -14 92 -15 q53 0 110.5 21.5t105.5 68t80 115t32 164.5q0 45 -14.5 88t-46.5 77t-85 54.5t-129 20.5h-8l22 129h9q133 0 216 68.5t83 222.5q0 90 -52.5 143t-156.5 53q-51 0 -100.5 -19.5t-90.5 -61.5t-71.5 -106.5t-46.5 -156.5l-234 -1327z" />
<glyph unicode="&#xe0;" horiz-adv-x="1089" d="M188 276q0 106 38 183.5t98.5 124.5t137.5 69.5t154 22.5q98 0 163 -25.5t102 -52.5l16 92q10 51 10 88q0 49 -15 82t-39 52.5t-54.5 26.5t-61.5 7q-43 0 -89 -10t-89 -26.5t-83 -36t-70 -39.5l-19 122q68 41 162 78t199 37q51 0 103 -13.5t95 -46t69.5 -85t26.5 -131.5 q0 -41 -10 -99l-123 -696h-133l15 86q-49 -41 -125 -76t-177 -35q-141 0 -221 83t-80 218zM322 291q0 -82 48 -136.5t144 -54.5q90 0 173 48.5t134 105.5l35 207q-31 25 -93.5 57.5t-148.5 32.5q-57 0 -109 -14.5t-93 -46t-65.5 -81t-24.5 -118.5zM529 1499h210l224 -319 h-140z" />
<glyph unicode="&#xe1;" horiz-adv-x="1089" d="M188 276q0 106 38 183.5t98.5 124.5t137.5 69.5t154 22.5q98 0 163 -25.5t102 -52.5l16 92q10 51 10 88q0 49 -15 82t-39 52.5t-54.5 26.5t-61.5 7q-43 0 -89 -10t-89 -26.5t-83 -36t-70 -39.5l-19 122q68 41 162 78t199 37q51 0 103 -13.5t95 -46t69.5 -85t26.5 -131.5 q0 -41 -10 -99l-123 -696h-133l15 86q-49 -41 -125 -76t-177 -35q-141 0 -221 83t-80 218zM322 291q0 -82 48 -136.5t144 -54.5q90 0 173 48.5t134 105.5l35 207q-31 25 -93.5 57.5t-148.5 32.5q-57 0 -109 -14.5t-93 -46t-65.5 -81t-24.5 -118.5zM655 1180l336 319h209 l-404 -319h-141z" />
<glyph unicode="&#xe2;" horiz-adv-x="1089" d="M188 276q0 106 38 183.5t98.5 124.5t137.5 69.5t154 22.5q98 0 163 -25.5t102 -52.5l16 92q10 51 10 88q0 49 -15 82t-39 52.5t-54.5 26.5t-61.5 7q-43 0 -89 -10t-89 -26.5t-83 -36t-70 -39.5l-19 122q68 41 162 78t199 37q51 0 103 -13.5t95 -46t69.5 -85t26.5 -131.5 q0 -41 -10 -99l-123 -696h-133l15 86q-49 -41 -125 -76t-177 -35q-141 0 -221 83t-80 218zM322 291q0 -82 48 -136.5t144 -54.5q90 0 173 48.5t134 105.5l35 207q-31 25 -93.5 57.5t-148.5 32.5q-57 0 -109 -14.5t-93 -46t-65.5 -81t-24.5 -118.5zM401 1180l332 319h158 l223 -319h-129l-192 206l-265 -206h-127z" />
<glyph unicode="&#xe3;" horiz-adv-x="1089" d="M188 276q0 106 38 183.5t98.5 124.5t137.5 69.5t154 22.5q98 0 163 -25.5t102 -52.5l16 92q10 51 10 88q0 49 -15 82t-39 52.5t-54.5 26.5t-61.5 7q-43 0 -89 -10t-89 -26.5t-83 -36t-70 -39.5l-19 122q68 41 162 78t199 37q51 0 103 -13.5t95 -46t69.5 -85t26.5 -131.5 q0 -41 -10 -99l-123 -696h-133l15 86q-49 -41 -125 -76t-177 -35q-141 0 -221 83t-80 218zM322 291q0 -82 48 -136.5t144 -54.5q90 0 173 48.5t134 105.5l35 207q-31 25 -93.5 57.5t-148.5 32.5q-57 0 -109 -14.5t-93 -46t-65.5 -81t-24.5 -118.5zM418 1241q18 109 72.5 167 t148.5 58q51 0 92 -16t76 -35.5t67.5 -36t69.5 -16.5t69 24.5t44 71.5h74q-20 -109 -75 -167t-147 -58q-53 0 -93 16.5t-75.5 35t-68.5 34.5t-70 16t-67.5 -23.5t-40.5 -70.5h-76z" />
<glyph unicode="&#xe4;" horiz-adv-x="1089" d="M188 276q0 106 38 183.5t98.5 124.5t137.5 69.5t154 22.5q98 0 163 -25.5t102 -52.5l16 92q10 51 10 88q0 49 -15 82t-39 52.5t-54.5 26.5t-61.5 7q-43 0 -89 -10t-89 -26.5t-83 -36t-70 -39.5l-19 122q68 41 162 78t199 37q51 0 103 -13.5t95 -46t69.5 -85t26.5 -131.5 q0 -41 -10 -99l-123 -696h-133l15 86q-49 -41 -125 -76t-177 -35q-141 0 -221 83t-80 218zM322 291q0 -82 48 -136.5t144 -54.5q90 0 173 48.5t134 105.5l35 207q-31 25 -93.5 57.5t-148.5 32.5q-57 0 -109 -14.5t-93 -46t-65.5 -81t-24.5 -118.5zM547 1343q0 47 33.5 79 t76.5 32q35 0 56.5 -22.5t21.5 -57.5q0 -47 -32.5 -79.5t-77.5 -32.5q-35 0 -56.5 23.5t-21.5 57.5zM872 1343q0 47 36 79t77 32q35 0 56.5 -22.5t21.5 -57.5q0 -47 -34 -79.5t-77 -32.5q-35 0 -57.5 23.5t-22.5 57.5z" />
<glyph unicode="&#xe5;" horiz-adv-x="1089" d="M188 276q0 106 38 183.5t98.5 124.5t137.5 69.5t154 22.5q98 0 163 -25.5t102 -52.5l16 92q10 51 10 88q0 49 -15 82t-39 52.5t-54.5 26.5t-61.5 7q-43 0 -89 -10t-89 -26.5t-83 -36t-70 -39.5l-19 122q68 41 162 78t199 37q51 0 103 -13.5t95 -46t69.5 -85t26.5 -131.5 q0 -41 -10 -99l-123 -696h-133l15 86q-49 -41 -125 -76t-177 -35q-141 0 -221 83t-80 218zM322 291q0 -82 48 -136.5t144 -54.5q90 0 173 48.5t134 105.5l35 207q-31 25 -93.5 57.5t-148.5 32.5q-57 0 -109 -14.5t-93 -46t-65.5 -81t-24.5 -118.5zM567 1377q0 55 22.5 102 t60.5 83t87 56.5t100 20.5q82 0 135.5 -56.5t53.5 -138.5q0 -53 -23.5 -101t-61.5 -85t-87.5 -58.5t-98.5 -21.5q-41 0 -75.5 16.5t-59 43t-39 62.5t-14.5 77zM684 1389q0 -45 25.5 -75t64.5 -30q55 0 96 42t41 108q0 45 -25.5 71.5t-66.5 26.5q-51 0 -93 -39t-42 -104z" />
<glyph unicode="&#xe6;" horiz-adv-x="1738" d="M188 276q0 102 35 178t95.5 125.5t139.5 73t167 23.5q63 0 129.5 -18.5t126.5 -59.5l16 92q10 51 10 84q0 90 -46 131t-124 41q-43 0 -89 -10t-89 -26.5t-83 -36t-70 -39.5l-19 122q68 41 163 78t198 37q111 0 181 -51t93 -131q39 51 84 87t92 56.5t93 29.5t87 9 q178 0 267.5 -99.5t89.5 -283.5q0 -80 -14.5 -134t-24.5 -89h-684q-2 -14 -2 -19.5v-17.5q0 -154 60 -236.5t175 -82.5q53 0 114.5 18t127.5 63l63 -104q-59 -45 -141 -78t-180 -33q-115 0 -201 62.5t-123 171.5q-92 -127 -201.5 -180.5t-214.5 -53.5q-137 0 -219 81 t-82 220zM322 291q0 -82 48 -136.5t144 -54.5q45 0 89 14.5t84 38t75 53.5t61 60l33 195q-41 35 -104.5 62.5t-137.5 27.5q-59 0 -111 -14.5t-93 -46t-64.5 -81t-23.5 -118.5zM1028 594h553q8 33 11 62.5t3 56.5q0 117 -62.5 173t-154.5 56q-57 0 -111.5 -21.5t-100.5 -64.5 t-81.5 -108.5t-56.5 -153.5z" />
<glyph unicode="&#xe7;" horiz-adv-x="989" d="M205 379q0 156 38 284t107.5 219t166.5 140t214 49q113 0 187.5 -56.5t95.5 -162.5l-133 -51q-12 59 -53.5 100t-125.5 41q-98 0 -165.5 -47t-109.5 -124t-60.5 -177t-18.5 -207q0 -129 49 -206t154 -77q82 0 146.5 43t105.5 117l115 -49q-49 -98 -136.5 -158.5 t-195.5 -76.5l-70 -93q49 0 83 -12t54.5 -31.5t29.5 -45t9 -50.5q0 -49 -20.5 -91t-55 -71.5t-81 -47t-99.5 -17.5q-55 0 -96 15t-66 42l101 62q10 -16 24.5 -18.5t42.5 -2.5q23 0 45.5 9.5t41 24.5t29.5 35.5t11 45.5q0 35 -32.5 61.5t-73.5 26.5q-51 0 -74 -10l-18 30 l125 135q-139 10 -215 116t-76 286z" />
<glyph unicode="&#xe8;" horiz-adv-x="1081" d="M205 414q0 141 39 262t108.5 208t163.5 137t205 50q78 0 143.5 -21.5t112.5 -68.5t73.5 -120t26.5 -177q0 -68 -12 -120t-27 -99h-686v-29q0 -154 58.5 -240.5t177.5 -86.5q55 0 115.5 18t125.5 63l64 -104q-68 -51 -150 -81t-172 -30q-86 0 -154.5 34t-115.5 93.5 t-71.5 139.5t-24.5 172zM371 594h553q14 55 14 102q0 74 -19.5 121t-50 75t-69.5 39t-78 11q-76 0 -135.5 -30.5t-102.5 -80t-70.5 -112t-41.5 -125.5zM463 1499h210l224 -319h-140z" />
<glyph unicode="&#xe9;" horiz-adv-x="1081" d="M205 414q0 141 39 262t108.5 208t163.5 137t205 50q78 0 143.5 -21.5t112.5 -68.5t73.5 -120t26.5 -177q0 -68 -12 -120t-27 -99h-686v-29q0 -154 58.5 -240.5t177.5 -86.5q55 0 115.5 18t125.5 63l64 -104q-68 -51 -150 -81t-172 -30q-86 0 -154.5 34t-115.5 93.5 t-71.5 139.5t-24.5 172zM371 594h553q14 55 14 102q0 74 -19.5 121t-50 75t-69.5 39t-78 11q-76 0 -135.5 -30.5t-102.5 -80t-70.5 -112t-41.5 -125.5zM608 1180l336 319h209l-404 -319h-141z" />
<glyph unicode="&#xea;" horiz-adv-x="1081" d="M205 414q0 141 39 262t108.5 208t163.5 137t205 50q78 0 143.5 -21.5t112.5 -68.5t73.5 -120t26.5 -177q0 -68 -12 -120t-27 -99h-686v-29q0 -154 58.5 -240.5t177.5 -86.5q55 0 115.5 18t125.5 63l64 -104q-68 -51 -150 -81t-172 -30q-86 0 -154.5 34t-115.5 93.5 t-71.5 139.5t-24.5 172zM371 594h553q14 55 14 102q0 74 -19.5 121t-50 75t-69.5 39t-78 11q-76 0 -135.5 -30.5t-102.5 -80t-70.5 -112t-41.5 -125.5zM411 1180l332 319h158l223 -319h-129l-192 206l-265 -206h-127z" />
<glyph unicode="&#xeb;" horiz-adv-x="1081" d="M205 414q0 141 39 262t108.5 208t163.5 137t205 50q78 0 143.5 -21.5t112.5 -68.5t73.5 -120t26.5 -177q0 -68 -12 -120t-27 -99h-686v-29q0 -154 58.5 -240.5t177.5 -86.5q55 0 115.5 18t125.5 63l64 -104q-68 -51 -150 -81t-172 -30q-86 0 -154.5 34t-115.5 93.5 t-71.5 139.5t-24.5 172zM371 594h553q14 55 14 102q0 74 -19.5 121t-50 75t-69.5 39t-78 11q-76 0 -135.5 -30.5t-102.5 -80t-70.5 -112t-41.5 -125.5zM539 1343q0 47 33.5 79t76.5 32q35 0 56.5 -22.5t21.5 -57.5q0 -47 -32.5 -79.5t-77.5 -32.5q-35 0 -56.5 23.5 t-21.5 57.5zM864 1343q0 47 36 79t77 32q35 0 56.5 -22.5t21.5 -57.5q0 -47 -34 -79.5t-77 -32.5q-35 0 -57.5 23.5t-22.5 57.5z" />
<glyph unicode="&#xec;" horiz-adv-x="534" d="M152 1499h210l224 -319h-140zM195 0l184 1047h137l-184 -1047h-137z" />
<glyph unicode="&#xed;" horiz-adv-x="534" d="M195 0l184 1047h137l-184 -1047h-137zM332 1180l336 319h209l-404 -319h-141z" />
<glyph unicode="&#xee;" horiz-adv-x="534" d="M108 1180l332 319h158l223 -319h-129l-192 206l-265 -206h-127zM195 0l184 1047h137l-184 -1047h-137z" />
<glyph unicode="&#xef;" horiz-adv-x="534" d="M195 0l184 1047h137l-184 -1047h-137zM244 1343q0 47 33.5 79t76.5 32q35 0 56.5 -22.5t21.5 -57.5q0 -47 -32.5 -79.5t-77.5 -32.5q-35 0 -56.5 23.5t-21.5 57.5zM569 1343q0 47 36 79t77 32q35 0 56.5 -22.5t21.5 -57.5q0 -47 -34 -79.5t-77 -32.5q-35 0 -57.5 23.5 t-22.5 57.5z" />
<glyph unicode="&#xf0;" horiz-adv-x="1120" d="M199 375q0 125 42 227.5t112.5 176t165.5 114.5t200 41q63 0 108 -15.5t76 -40t50.5 -56t31.5 -66.5q0 59 -7 123.5t-25.5 126t-49.5 117t-76 98.5l-155 -144l-51 70l135 129q-47 29 -105.5 48t-128.5 26l21 108q84 -8 163.5 -31.5t141.5 -64.5l133 127l57 -72l-120 -110 q92 -90 142 -232.5t50 -322.5q0 -182 -39 -325.5t-110.5 -244t-174 -154t-229.5 -53.5q-86 0 -152.5 30t-112.5 83t-69.5 127t-23.5 160zM346 383q0 -135 58.5 -207t175.5 -72q68 0 131 32t112 87.5t80 131t31 163.5q0 129 -60.5 208t-171.5 79q-68 0 -132 -32t-114 -88 t-80 -133t-30 -169z" />
<glyph unicode="&#xf1;" horiz-adv-x="1146" d="M195 0l184 1047h143l-20 -115q57 68 130 103.5t150 35.5q141 0 219 -82t78 -252q0 -35 -3 -74.5t-11 -82.5l-102 -580h-144l111 631q10 57 10 96q0 102 -48 158.5t-142 56.5q-53 0 -103.5 -22.5t-90.5 -62.5t-67.5 -97.5t-39.5 -124.5l-111 -635h-143zM442 1241 q18 109 72.5 167t148.5 58q51 0 92 -16t76 -35.5t67.5 -36t69.5 -16.5t69 24.5t44 71.5h74q-20 -109 -75 -167t-147 -58q-53 0 -93 16.5t-75.5 35t-68.5 34.5t-70 16t-67.5 -23.5t-40.5 -70.5h-76z" />
<glyph unicode="&#xf2;" horiz-adv-x="1120" d="M201 401q0 113 32.5 232t98 216t165 159.5t234.5 62.5q100 0 171 -37t116 -97t64.5 -137t19.5 -155q0 -113 -32 -231.5t-97.5 -216t-166 -160t-235.5 -62.5q-98 0 -168.5 36t-115.5 94.5t-65.5 135t-20.5 160.5zM344 401q0 -57 12.5 -110t40 -95t70.5 -67t104 -25 q98 0 172 50.5t121 129t70.5 175t23.5 186.5q0 55 -12 108.5t-38.5 95.5t-70.5 67.5t-106 25.5q-98 0 -171 -50t-121 -129t-71.5 -174t-23.5 -188zM461 1499h210l224 -319h-140z" />
<glyph unicode="&#xf3;" horiz-adv-x="1120" d="M201 401q0 113 32.5 232t98 216t165 159.5t234.5 62.5q100 0 171 -37t116 -97t64.5 -137t19.5 -155q0 -113 -32 -231.5t-97.5 -216t-166 -160t-235.5 -62.5q-98 0 -168.5 36t-115.5 94.5t-65.5 135t-20.5 160.5zM344 401q0 -57 12.5 -110t40 -95t70.5 -67t104 -25 q98 0 172 50.5t121 129t70.5 175t23.5 186.5q0 55 -12 108.5t-38.5 95.5t-70.5 67.5t-106 25.5q-98 0 -171 -50t-121 -129t-71.5 -174t-23.5 -188zM645 1180l336 319h209l-404 -319h-141z" />
<glyph unicode="&#xf4;" horiz-adv-x="1120" d="M201 401q0 113 32.5 232t98 216t165 159.5t234.5 62.5q100 0 171 -37t116 -97t64.5 -137t19.5 -155q0 -113 -32 -231.5t-97.5 -216t-166 -160t-235.5 -62.5q-98 0 -168.5 36t-115.5 94.5t-65.5 135t-20.5 160.5zM344 401q0 -57 12.5 -110t40 -95t70.5 -67t104 -25 q98 0 172 50.5t121 129t70.5 175t23.5 186.5q0 55 -12 108.5t-38.5 95.5t-70.5 67.5t-106 25.5q-98 0 -171 -50t-121 -129t-71.5 -174t-23.5 -188zM428 1180l332 319h158l223 -319h-129l-192 206l-265 -206h-127z" />
<glyph unicode="&#xf5;" horiz-adv-x="1120" d="M201 401q0 113 32.5 232t98 216t165 159.5t234.5 62.5q100 0 171 -37t116 -97t64.5 -137t19.5 -155q0 -113 -32 -231.5t-97.5 -216t-166 -160t-235.5 -62.5q-98 0 -168.5 36t-115.5 94.5t-65.5 135t-20.5 160.5zM344 401q0 -57 12.5 -110t40 -95t70.5 -67t104 -25 q98 0 172 50.5t121 129t70.5 175t23.5 186.5q0 55 -12 108.5t-38.5 95.5t-70.5 67.5t-106 25.5q-98 0 -171 -50t-121 -129t-71.5 -174t-23.5 -188zM436 1241q18 109 72.5 167t148.5 58q51 0 92 -16t76 -35.5t67.5 -36t69.5 -16.5t69 24.5t44 71.5h74q-20 -109 -75 -167 t-147 -58q-53 0 -93 16.5t-75.5 35t-68.5 34.5t-70 16t-67.5 -23.5t-40.5 -70.5h-76z" />
<glyph unicode="&#xf6;" horiz-adv-x="1120" d="M201 401q0 113 32.5 232t98 216t165 159.5t234.5 62.5q100 0 171 -37t116 -97t64.5 -137t19.5 -155q0 -113 -32 -231.5t-97.5 -216t-166 -160t-235.5 -62.5q-98 0 -168.5 36t-115.5 94.5t-65.5 135t-20.5 160.5zM344 401q0 -57 12.5 -110t40 -95t70.5 -67t104 -25 q98 0 172 50.5t121 129t70.5 175t23.5 186.5q0 55 -12 108.5t-38.5 95.5t-70.5 67.5t-106 25.5q-98 0 -171 -50t-121 -129t-71.5 -174t-23.5 -188zM537 1343q0 47 33.5 79t76.5 32q35 0 56.5 -22.5t21.5 -57.5q0 -47 -32.5 -79.5t-77.5 -32.5q-35 0 -56.5 23.5t-21.5 57.5z M862 1343q0 47 36 79t77 32q35 0 56.5 -22.5t21.5 -57.5q0 -47 -34 -79.5t-77 -32.5q-35 0 -57.5 23.5t-22.5 57.5z" />
<glyph unicode="&#xf7;" d="M305 631v139h963v-139h-963zM682 274q0 41 27.5 71t70.5 30q45 0 75 -30t30 -71t-30 -67.5t-75 -26.5q-43 0 -70.5 26.5t-27.5 67.5zM682 1124q0 39 27.5 70t70.5 31q45 0 75 -31t30 -70q0 -41 -30 -69.5t-75 -28.5q-43 0 -70.5 28.5t-27.5 69.5z" />
<glyph unicode="&#xf8;" horiz-adv-x="1120" d="M125 -25l139 164q-33 55 -48 123t-15 139q0 113 32.5 232t98 216t165 159.5t234.5 62.5q80 0 139.5 -23.5t104.5 -64.5l74 88h129l-140 -166q33 -57 48.5 -124.5t15.5 -135.5q0 -113 -32 -231.5t-97.5 -216t-165.5 -160t-236 -62.5q-80 0 -140 22.5t-105 63.5l-72 -86 h-129zM344 401q0 -37 5 -72.5t16 -68.5l520 617q-29 31 -66 48t-88 17q-98 0 -171 -50t-121 -129t-71.5 -174.5t-23.5 -187.5zM418 168q27 -29 64.5 -46.5t88.5 -17.5q98 0 172 50.5t121 129t70.5 175t23.5 186.5q0 35 -5 71t-17 68z" />
<glyph unicode="&#xf9;" horiz-adv-x="1144" d="M248 299q0 35 4 69.5t10 75.5l105 603h143l-113 -639q-4 -25 -6 -48.5t-2 -44.5q0 -115 55.5 -163t133.5 -48q51 0 99 14.5t88 49.5t69.5 92t46.5 143l112 644h144l-185 -1047h-143l18 100q-49 -66 -117.5 -95.5t-154.5 -29.5q-152 0 -229.5 82t-77.5 242zM498 1499h210 l224 -319h-140z" />
<glyph unicode="&#xfa;" horiz-adv-x="1144" d="M248 299q0 35 4 69.5t10 75.5l105 603h143l-113 -639q-4 -25 -6 -48.5t-2 -44.5q0 -115 55.5 -163t133.5 -48q51 0 99 14.5t88 49.5t69.5 92t46.5 143l112 644h144l-185 -1047h-143l18 100q-49 -66 -117.5 -95.5t-154.5 -29.5q-152 0 -229.5 82t-77.5 242zM625 1180 l336 319h209l-404 -319h-141z" />
<glyph unicode="&#xfb;" horiz-adv-x="1144" d="M248 299q0 35 4 69.5t10 75.5l105 603h143l-113 -639q-4 -25 -6 -48.5t-2 -44.5q0 -115 55.5 -163t133.5 -48q51 0 99 14.5t88 49.5t69.5 92t46.5 143l112 644h144l-185 -1047h-143l18 100q-49 -66 -117.5 -95.5t-154.5 -29.5q-152 0 -229.5 82t-77.5 242zM417 1180 l332 319h158l223 -319h-129l-192 206l-265 -206h-127z" />
<glyph unicode="&#xfc;" horiz-adv-x="1144" d="M248 299q0 35 4 69.5t10 75.5l105 603h143l-113 -639q-4 -25 -6 -48.5t-2 -44.5q0 -115 55.5 -163t133.5 -48q51 0 99 14.5t88 49.5t69.5 92t46.5 143l112 644h144l-185 -1047h-143l18 100q-49 -66 -117.5 -95.5t-154.5 -29.5q-152 0 -229.5 82t-77.5 242zM553 1343 q0 47 33.5 79t76.5 32q35 0 56.5 -22.5t21.5 -57.5q0 -47 -32.5 -79.5t-77.5 -32.5q-35 0 -56.5 23.5t-21.5 57.5zM878 1343q0 47 36 79t77 32q35 0 56.5 -22.5t21.5 -57.5q0 -47 -34 -79.5t-77 -32.5q-35 0 -57.5 23.5t-22.5 57.5z" />
<glyph unicode="&#xfd;" horiz-adv-x="1048" d="M229 -397l226 430l-191 1014h148l123 -760q2 -14 4 -27.5t4 -23.5q2 -12 4 -25q-2 0 13 26.5t28 49.5l397 760h156l-766 -1444h-146zM625 1180l336 319h209l-404 -319h-141z" />
<glyph unicode="&#xfe;" horiz-adv-x="1157" d="M125 -416l319 1805l150 69l-90 -506q57 45 125.5 82t171.5 37q80 0 141.5 -30.5t104.5 -85t64.5 -131t21.5 -169.5q0 -158 -41 -282.5t-112 -213.5t-166 -136.5t-206 -47.5q-53 0 -93 10.5t-70.5 29t-52 42t-38.5 49.5l-80 -450zM383 266q41 -70 94 -116t137 -46 q88 0 157 39t117 110t73.5 167t25.5 213q0 137 -57.5 223t-167.5 86q-82 0 -158 -42t-131 -120z" />
<glyph unicode="&#xff;" horiz-adv-x="1048" d="M229 -397l226 430l-191 1014h148l123 -760q2 -14 4 -27.5t4 -23.5q2 -12 4 -25q-2 0 13 26.5t28 49.5l397 760h156l-766 -1444h-146zM490 1343q0 47 33.5 79t76.5 32q35 0 56.5 -22.5t21.5 -57.5q0 -47 -32.5 -79.5t-77.5 -32.5q-35 0 -56.5 23.5t-21.5 57.5zM815 1343 q0 47 36 79t77 32q35 0 56.5 -22.5t21.5 -57.5q0 -47 -34 -79.5t-77 -32.5q-35 0 -57.5 23.5t-22.5 57.5z" />
<glyph unicode="&#x152;" horiz-adv-x="1830" d="M266 539q0 154 40 316.5t127 296.5t223.5 220t330.5 86q53 0 94 -6t76 -18h723l-22 -138h-535l-86 -487h362l-24 -135h-363l-94 -537h578l-25 -137h-764q-84 -25 -182 -25q-129 0 -216 49.5t-141.5 129t-78 181t-23.5 204.5zM412 549q0 -86 17 -166t57 -141.5t105 -99.5 t157 -38q66 0 125 18.5t114 51.5l191 1086q-86 70 -215 69q-143 0 -248 -73.5t-172.5 -188.5t-99 -252t-31.5 -266z" />
<glyph unicode="&#x153;" horiz-adv-x="1800" d="M201 401q0 113 32.5 232t98 216t165 159.5t234.5 62.5q131 0 210 -59.5t118 -149.5q70 98 169 153.5t216 55.5q78 0 143.5 -21.5t112.5 -68.5t73.5 -120t26.5 -177q0 -68 -12 -120t-27 -99h-686v-29q0 -154 58.5 -240.5t177.5 -86.5q55 0 115.5 18t125.5 63l64 -104 q-68 -51 -150 -81t-172 -30q-117 0 -199.5 59.5t-123.5 158.5q-66 -98 -165 -158t-235 -60q-98 0 -168.5 36t-115.5 94.5t-65.5 135t-20.5 160.5zM344 401q0 -57 12.5 -110t40 -95t70.5 -67t104 -25q98 0 172 50.5t121 129t70.5 175t23.5 186.5q0 55 -12 108.5t-38.5 95.5 t-70.5 67.5t-106 25.5q-98 0 -171 -50t-121 -129t-71.5 -174t-23.5 -188zM1094 594h553q14 55 14 102q0 74 -19.5 121t-50 75t-69.5 39t-78 11q-76 0 -135.5 -30.5t-102.5 -80t-70.5 -112t-41.5 -125.5z" />
<glyph unicode="&#x178;" horiz-adv-x="1255" d="M362 1434h146l235 -738l506 738h148l-606 -875l-99 -559h-137l100 573zM666 1712q0 47 33.5 79t76.5 32q35 0 56.5 -22.5t21.5 -57.5q0 -47 -32.5 -79.5t-77.5 -32.5q-35 0 -56.5 23.5t-21.5 57.5zM991 1712q0 47 36 79t77 32q35 0 56.5 -22.5t21.5 -57.5 q0 -47 -34 -79.5t-77 -32.5q-35 0 -57.5 23.5t-22.5 57.5z" />
<glyph unicode="&#x2c6;" horiz-adv-x="702" d="M274 1180l332 319h158l223 -319h-129l-192 206l-265 -206h-127z" />
<glyph unicode="&#x2dc;" horiz-adv-x="702" d="M295 1241q18 109 72.5 167t148.5 58q51 0 92 -16t76 -35.5t67.5 -36t69.5 -16.5t69 24.5t44 71.5h74q-20 -109 -75 -167t-147 -58q-53 0 -93 16.5t-75.5 35t-68.5 34.5t-70 16t-67.5 -23.5t-40.5 -70.5h-76z" />
<glyph unicode="&#x2000;" horiz-adv-x="944" />
<glyph unicode="&#x2001;" horiz-adv-x="1888" />
<glyph unicode="&#x2002;" horiz-adv-x="944" />
<glyph unicode="&#x2003;" horiz-adv-x="1888" />
<glyph unicode="&#x2004;" horiz-adv-x="629" />
<glyph unicode="&#x2005;" horiz-adv-x="472" />
<glyph unicode="&#x2006;" horiz-adv-x="314" />
<glyph unicode="&#x2007;" horiz-adv-x="314" />
<glyph unicode="&#x2008;" horiz-adv-x="236" />
<glyph unicode="&#x2009;" horiz-adv-x="377" />
<glyph unicode="&#x200a;" horiz-adv-x="104" />
<glyph unicode="&#x2010;" horiz-adv-x="835" d="M295 541l24 139h439l-25 -139h-438z" />
<glyph unicode="&#x2011;" horiz-adv-x="835" d="M295 541l24 139h439l-25 -139h-438z" />
<glyph unicode="&#x2012;" horiz-adv-x="835" d="M295 541l24 139h439l-25 -139h-438z" />
<glyph unicode="&#x2013;" horiz-adv-x="1075" d="M242 526l22 123h776l-22 -123h-776z" />
<glyph unicode="&#x2014;" horiz-adv-x="1232" d="M133 526l23 123h1151l-23 -123h-1151z" />
<glyph unicode="&#x2018;" horiz-adv-x="487" d="M299 1079q0 123 70.5 221.5t173.5 157.5l35 -10q-16 -12 -37 -33.5t-41.5 -52.5t-38 -70t-25.5 -84q57 0 91 -30.5t34 -77.5q0 -70 -45 -112t-102 -42q-45 0 -80 33t-35 100z" />
<glyph unicode="&#x2019;" horiz-adv-x="487" d="M334 956q14 12 35.5 34t42 52.5t38 69.5t25.5 84q-57 0 -90 30.5t-33 78.5q0 70 44 111.5t102 41.5q45 0 79.5 -32.5t34.5 -100.5q0 -123 -70.5 -221t-172.5 -158z" />
<glyph unicode="&#x201a;" horiz-adv-x="487" d="M117 -279q14 12 35.5 34t42 52.5t38 69.5t25.5 84q-57 0 -90 31t-33 78q0 70 44 111.5t100 41.5q47 0 80.5 -32.5t33.5 -100.5q0 -123 -69.5 -221t-171.5 -158z" />
<glyph unicode="&#x201c;" horiz-adv-x="872" d="M299 1079q0 123 70.5 221.5t173.5 157.5l35 -10q-16 -12 -37 -33.5t-41.5 -52.5t-38 -70t-25.5 -84q57 0 91 -30.5t34 -77.5q0 -70 -45 -112t-102 -42q-45 0 -80 33t-35 100zM684 1081q0 59 19.5 114.5t52 105t77 89.5t95.5 68l37 -10q-16 -12 -38 -33.5t-42.5 -52.5 t-37 -70t-24.5 -84q55 0 89 -30.5t34 -77.5q0 -70 -45 -112t-102 -42q-43 0 -79 33t-36 102z" />
<glyph unicode="&#x201d;" horiz-adv-x="872" d="M334 956q14 12 35.5 34t42 52.5t38 69.5t25.5 84q-57 0 -90 30.5t-33 78.5q0 70 44 111.5t102 41.5q45 0 79.5 -32.5t34.5 -100.5q0 -123 -70.5 -221t-172.5 -158zM719 956q14 12 35.5 34t42 52.5t38 69.5t25.5 84q-55 0 -89 30.5t-34 78.5q0 70 45 111.5t101 41.5 q45 0 79.5 -32.5t34.5 -100.5q0 -123 -70.5 -221t-172.5 -158z" />
<glyph unicode="&#x201e;" horiz-adv-x="872" d="M117 -279q14 12 35.5 34t42 52.5t38 69.5t25.5 84q-57 0 -90 31t-33 78q0 70 44 111.5t100 41.5q47 0 80.5 -32.5t33.5 -100.5q0 -123 -69.5 -221t-171.5 -158zM502 -279q14 12 35.5 34t42 52.5t38 69.5t25.5 84q-55 0 -89 31t-34 78q0 70 45 111.5t99 41.5 q47 0 80.5 -32.5t33.5 -100.5q0 -123 -69.5 -221t-171.5 -158z" />
<glyph unicode="&#x2022;" horiz-adv-x="862" d="M293 676q0 61 24.5 117.5t66.5 97.5t98.5 65.5t117.5 24.5q49 0 91 -17.5t71 -48t45 -71.5t16 -86q0 -63 -25.5 -117.5t-69.5 -95.5t-101.5 -64.5t-118.5 -23.5q-98 0 -156.5 63.5t-58.5 155.5z" />
<glyph unicode="&#x2026;" horiz-adv-x="1654" d="M236 43q0 37 30.5 65.5t65.5 28.5q31 0 50 -21.5t19 -49.5q0 -35 -29.5 -63t-68.5 -28q-29 0 -48 20.5t-19 47.5zM754 43q0 37 28.5 65.5t67.5 28.5q31 0 51.5 -21.5t20.5 -49.5q0 -37 -31 -64t-70 -27q-31 0 -49 20.5t-18 47.5zM1272 43q0 37 30.5 65.5t65.5 28.5 q31 0 50.5 -21.5t19.5 -49.5q0 -35 -30 -63t-69 -28q-29 0 -48 20.5t-19 47.5z" />
<glyph unicode="&#x202f;" horiz-adv-x="377" />
<glyph unicode="&#x2039;" horiz-adv-x="643" d="M203 524l391 523h154l-392 -523l207 -524h-153z" />
<glyph unicode="&#x203a;" horiz-adv-x="643" d="M80 0l391 524l-207 523h154l207 -523l-392 -524h-153z" />
<glyph unicode="&#x205f;" horiz-adv-x="472" />
<glyph unicode="&#x20ac;" horiz-adv-x="1378" d="M190 475l74 119h74q4 51 13 104.5t24 112.5h-125l74 119h88q37 104 92 199.5t130 168t172 116.5t216 44q92 0 169 -24.5t136 -71.5l-76 -131q-41 43 -105.5 68.5t-150.5 25.5t-154.5 -32.5t-121.5 -87t-92 -126t-66 -149.5h516l-67 -119h-486q-14 -53 -24.5 -105.5 t-14.5 -111.5h400l-68 -119h-336q0 -174 62.5 -270t214.5 -96q96 0 174 40.5t137 106.5l98 -72q-31 -39 -73.5 -75.5t-97 -66.5t-119 -48.5t-138.5 -18.5q-117 0 -193.5 38t-123.5 105.5t-67.5 159t-22.5 197.5h-142z" />
<glyph unicode="&#x2122;" horiz-adv-x="1589" d="M233 1327v107h584v-107h-233v-758h-115v758h-236zM901 569v865h92l238 -570l18 -51l19 51l237 570h92v-865h-114v525l-19 -56l-213 -501l-215 501l-20 62v-531h-115z" />
<glyph unicode="&#x25fc;" horiz-adv-x="1044" d="M0 0v1044h1044v-1044h-1044z" />
</font>
</defs>
</svg>
