<?xml version="1.0" standalone="no"?>
<!DOCTYPE svg PUBLIC "-//W3C//DTD SVG 1.1//EN" "http://www.w3.org/Graphics/SVG/1.1/DTD/svg11.dtd" >
<svg xmlns="http://www.w3.org/2000/svg">
<metadata></metadata>
<defs>
<font id="overpassregular" horiz-adv-x="1290" >
<font-face units-per-em="2048" ascent="1536" descent="-512" />
<missing-glyph horiz-adv-x="471" />
<glyph unicode="&#xfb01;" horiz-adv-x="1194" d="M72 862v185h155v167q0 72 21 119.5t54.5 75t76.5 38.5t88 11q62 0 112 -13t97 -36v-176q-48 20 -83 28.5t-67 8.5q-26 0 -42.5 -7t-26.5 -20t-13.5 -30t-3.5 -37v-129h236v-185h-236v-862h-213v862h-155zM803 1339q0 27 10 50.5t27.5 41t41 27.5t50.5 10t50.5 -10 t41 -27.5t27.5 -41t10 -50.5t-10 -50.5t-27.5 -41t-41 -27.5t-50.5 -10t-50.5 10t-41 27.5t-27.5 41t-10 50.5zM825 0v1047h213v-1047h-213z" />
<glyph unicode="&#xfb02;" horiz-adv-x="1196" d="M72 862v185h155v167q0 72 21 119.5t54.5 75t76.5 38.5t88 11q62 0 112 -13t97 -36v-176q-48 20 -83 28.5t-67 8.5q-26 0 -42.5 -7t-26.5 -20t-13.5 -30t-3.5 -37v-129h236v-185h-236v-862h-213v862h-155zM819 0v1378l213 101v-1479h-213z" />
<glyph horiz-adv-x="0" />
<glyph horiz-adv-x="682" />
<glyph unicode=" "  horiz-adv-x="471" />
<glyph unicode="&#x09;" horiz-adv-x="471" />
<glyph unicode="&#xa0;" horiz-adv-x="471" />
<glyph unicode="!" horiz-adv-x="565" d="M129 125q0 31 11.5 58.5t32.5 48t49 32.5t61 12q32 0 60.5 -12t49.5 -32.5t33 -48t12 -58.5t-12 -58t-33 -47.5t-49.5 -32.5t-60.5 -12q-33 0 -61 12t-49 32.5t-32.5 47.5t-11.5 58zM176 1004v454h213v-454l-59 -609h-94z" />
<glyph unicode="&#x22;" horiz-adv-x="860" d="M92 1434h266l-43 -574h-180zM502 1434h266l-43 -574h-180z" />
<glyph unicode="#" horiz-adv-x="1393" d="M86 387l27 176h233l51 338h-233l26 176h234l55 357h183l-56 -357h285l55 357h182l-55 -357h234l-27 -176h-233l-52 -338h234l-27 -176h-233l-60 -387h-182l59 387h-284l-60 -387h-182l59 387h-233zM528 563h285l51 338h-284z" />
<glyph unicode="$" horiz-adv-x="1196" d="M102 324l201 73q21 -48 51 -88t69 -68.5t86 -44.5t101 -16q55 0 99.5 14t76 42t49 69.5t17.5 95.5q0 64 -30 107.5t-79.5 75.5t-112 56t-128.5 49t-128.5 56t-112 76t-79.5 108t-30 154q0 66 22 126.5t65 109.5t106 83t144 48v166h213v-168q61 -12 111.5 -37.5t89.5 -61 t65.5 -80t41.5 -95.5l-197 -66q-12 31 -33.5 57.5t-51.5 46t-68.5 30.5t-86.5 11q-94 0 -147 -45t-53 -127q0 -51 30 -86.5t79.5 -62.5t112 -49.5t128.5 -49t128.5 -61t112 -84t79.5 -119t30 -166.5q0 -90 -28.5 -161.5t-78.5 -124.5t-118 -86.5t-146 -46.5v-185h-213v187 q-142 26 -242.5 114.5t-144.5 223.5z" />
<glyph unicode="%" horiz-adv-x="1743" d="M92 1094q0 60 17.5 124t57.5 117.5t104 88t157 34.5q92 0 156 -32.5t104 -85t58 -117.5t18 -129q0 -59 -17 -123.5t-56.5 -118t-104 -88.5t-158.5 -35q-92 0 -156 33t-104 85t-58 117t-18 130zM264 1094q0 -44 10 -81t30.5 -63.5t51 -41.5t72.5 -15t73 16t51.5 43.5 t30 64t9.5 77.5q0 43 -10 80t-30.5 63.5t-51 41.5t-72.5 15t-73 -16t-51.5 -43t-30 -63.5t-9.5 -77.5zM285 -25l979 1483h194l-979 -1483h-194zM979 340q0 60 17.5 124.5t57.5 118t104 88t157 34.5q92 0 156 -33t104 -85t58 -117.5t18 -129.5q0 -59 -17 -123.5t-56.5 -118 t-104 -88.5t-158.5 -35q-92 0 -156 33t-104 85t-58 117t-18 130zM1151 340q0 -44 10 -81t30.5 -63.5t51 -41.5t72.5 -15t73 16t51 43.5t30 64t10 77.5q0 44 -10 81t-30.5 63.5t-51.5 41.5t-72 15q-42 0 -73 -16t-51.5 -43t-30 -63.5t-9.5 -78.5z" />
<glyph unicode="&#x26;" horiz-adv-x="1436" d="M123 379q0 85 27 151t71.5 117.5t102 92t118.5 75.5q-37 46 -64.5 85t-46 76.5t-27.5 75.5t-9 83q0 76 27.5 136t75 101.5t111.5 63.5t138 22t137 -24.5t109.5 -68t73 -103.5t26.5 -132q0 -65 -20 -117.5t-54 -95t-79 -77.5t-95 -66l226 -270q18 43 28.5 94t10.5 96h207 q-2 -90 -27.5 -185t-73.5 -181l273 -328h-283l-123 152q-84 -81 -192 -129t-242 -48q-94 0 -172 29t-134.5 81.5t-88 127t-31.5 166.5zM352 389q0 -48 16 -87t45.5 -67t71 -43.5t93.5 -15.5q83 0 152.5 37t123.5 96l-289 357q-45 -27 -83.5 -56t-67.5 -62.5t-45.5 -72.5 t-16.5 -86zM500 1137q0 -26 10.5 -53t28 -54t40.5 -55t48 -57q34 21 63 43t51 46.5t34.5 53t12.5 61.5q0 36 -11.5 63.5t-32 46t-47 28.5t-56.5 10q-31 0 -57 -9.5t-44.5 -27t-29 -42t-10.5 -54.5z" />
<glyph unicode="'" horiz-adv-x="451" d="M92 1434h266l-43 -574h-180z" />
<glyph unicode="(" horiz-adv-x="707" d="M143 582q0 155 23.5 288t61.5 243.5t87.5 196.5t100.5 148h209q-21 -24 -48.5 -68t-57.5 -104t-59 -136t-52.5 -165t-37.5 -190.5t-14 -212.5q0 -168 28.5 -307.5t68 -247.5t81.5 -182t68 -111h-209q-47 61 -92 143t-80 187t-56.5 234t-21.5 284z" />
<glyph unicode=")" horiz-adv-x="707" d="M82 1458h209q51 -62 100 -148t87.5 -196.5t61.5 -243.5t23 -288t-21.5 -284t-56.5 -234t-80 -187t-92 -143h-209q26 37 68 111t81.5 182t68 247.5t28.5 307.5q0 111 -14 212.5t-37 190.5t-52 165t-59 136t-58 103.5t-48 68.5z" />
<glyph unicode="*" horiz-adv-x="1085" d="M102 1059l60 182l211 -67l112 -80l-39 133v231h193v-231l-41 -135l115 82l211 67l59 -182l-211 -70h-143l116 -86l140 -190l-154 -113l-141 191l-47 141l-47 -141l-142 -191l-153 113l139 190l115 86h-142z" />
<glyph unicode="+" d="M164 600v205h375v379h213v-379h374v-205h-374v-379h-213v379h-375z" />
<glyph unicode="," horiz-adv-x="457" d="M72 119q0 35 12.5 63.5t33 49t48 31.5t57.5 11q32 0 61.5 -11.5t52 -34.5t35.5 -58t13 -82q0 -59 -17.5 -115t-47.5 -104.5t-70.5 -89t-85.5 -68.5l-80 51q14 12 33.5 34.5t38.5 51t33.5 61t19.5 66.5q-27 3 -52 14t-43.5 30t-30 44t-11.5 56z" />
<glyph unicode="-" horiz-adv-x="809" d="M154 506v205h501v-205h-501z" />
<glyph unicode="." horiz-adv-x="457" d="M74 125q0 31 11.5 58.5t32 48t48.5 32.5t61 12q32 0 60.5 -12t49.5 -32.5t33.5 -48t12.5 -58.5t-12.5 -58t-33.5 -47.5t-49.5 -32.5t-60.5 -12q-33 0 -61 12t-48.5 32.5t-32 47.5t-11.5 58z" />
<glyph unicode="/" horiz-adv-x="1010" d="M-31 -266l805 1724h215l-805 -1724h-215z" />
<glyph unicode="0" horiz-adv-x="1331" d="M154 717q0 82 9.5 169t33 169.5t61.5 155.5t95 128t134 87t179 32q99 0 175 -30.5t133 -83t96 -124t63 -154t34.5 -172t10.5 -177.5q0 -82 -10 -169.5t-33 -169.5t-61 -155.5t-95 -128.5t-134.5 -87t-178.5 -32q-99 0 -175.5 30.5t-133.5 83t-95.5 124t-62.5 154 t-34.5 172t-10.5 178.5zM375 717q0 -66 5.5 -132t18.5 -125.5t35 -110.5t54.5 -88.5t76 -59t101.5 -21.5q59 0 103 22.5t76.5 61.5t53.5 91t34 111.5t18 123.5t5 127q0 100 -13 196t-46 171.5t-89 122t-142 46.5q-59 0 -103.5 -22.5t-77 -61t-53.5 -90.5t-34 -111.5 t-18 -124t-5 -126.5z" />
<glyph unicode="1" horiz-adv-x="827" d="M72 1112v158q52 0 97 8t81.5 27t63.5 50.5t42 78.5h164v-1434h-213v1112h-235z" />
<glyph unicode="2" horiz-adv-x="1262" d="M133 0q0 147 43 265t115 211t165 163t193 121q46 24 89.5 51t77 60.5t53.5 75t20 93.5q0 45 -18.5 83.5t-51.5 67.5t-79 45.5t-101 16.5q-117 0 -186 -51t-103 -139l-194 88q26 68 72 124.5t109 97t140 63t164 22.5q109 0 196 -31.5t147.5 -88t93 -134.5t32.5 -170 q0 -91 -27.5 -159t-76.5 -121.5t-117.5 -97t-149.5 -85.5q-141 -74 -230.5 -161.5t-115.5 -200.5h729v-209h-989z" />
<glyph unicode="3" horiz-adv-x="1239" d="M100 305l199 80q25 -56 58.5 -95t73.5 -63.5t84 -35.5t89 -11q58 0 109 13.5t89 42t60.5 72.5t22.5 106q0 47 -15.5 88.5t-49 73t-85.5 49.5t-125 18h-110v205h110q50 0 90.5 14.5t69.5 40t45 61t16 78.5q0 100 -57.5 155.5t-169.5 55.5q-51 0 -91 -13.5t-70.5 -35.5 t-53.5 -51.5t-39 -60.5l-198 75q25 65 67.5 118.5t100 92t130.5 59.5t160 21q97 0 178.5 -31.5t140.5 -85.5t91.5 -125.5t32.5 -152.5q0 -100 -45.5 -181.5t-139.5 -129.5q54 -22 98 -53.5t75 -72.5t48 -92t17 -112q0 -108 -38 -191.5t-105 -140.5t-159 -86t-200 -29 q-95 0 -174.5 23.5t-142.5 67t-110 104t-77 135.5z" />
<glyph unicode="4" horiz-adv-x="1325" d="M31 326v137l733 971h252v-912h186v-196h-186v-326h-213v326h-772zM313 522h490v654z" />
<glyph unicode="5" horiz-adv-x="1241" d="M123 106l127 170q25 -17 54 -34t66 -31t83.5 -22.5t107.5 -8.5q74 0 134.5 21.5t103.5 60.5t66.5 93.5t23.5 119.5q0 64 -19 113t-54 82t-83.5 50t-107.5 17q-75 0 -131.5 -26t-98.5 -72l-231 86l49 709h805v-205h-606l-31 -365q45 32 115.5 55t158.5 23q115 0 200.5 -39 t142 -103.5t84.5 -147.5t28 -171q0 -115 -41 -208.5t-113.5 -159.5t-173.5 -102t-221 -36q-87 0 -156.5 12t-124 31t-93.5 42.5t-64 45.5z" />
<glyph unicode="6" horiz-adv-x="1229" d="M133 530q0 179 46.5 333.5t143 275t244.5 202.5t351 117v-205q-89 -14 -172.5 -47t-153.5 -88.5t-123.5 -134.5t-81.5 -184q21 20 50 38.5t66.5 32.5t82.5 22.5t96 8.5q97 0 179 -33.5t140.5 -95t91.5 -147t33 -189.5q0 -103 -36 -188t-101 -145.5t-156 -94t-202 -33.5 q-126 0 -219.5 42.5t-155.5 117.5t-92.5 176.5t-30.5 218.5zM354 436q0 -61 21 -108.5t57.5 -80.5t87.5 -50t111 -17t110.5 17t86.5 50t56.5 80.5t20.5 108.5q0 62 -20.5 110.5t-56.5 81.5t-86.5 50.5t-110.5 17.5t-111 -17.5t-87.5 -50.5t-57.5 -81.5t-21 -110.5z" />
<glyph unicode="7" horiz-adv-x="1100" d="M51 1225v209h967v-232q-80 -93 -143 -196.5t-110 -210.5t-80 -215t-53.5 -210.5t-30 -196.5t-9.5 -173h-221q1 183 28 343.5t78.5 308.5t127.5 288.5t177 284.5h-731z" />
<glyph unicode="8" horiz-adv-x="1260" d="M133 420q0 66 17.5 121.5t49 100.5t76 80.5t97.5 61.5q-85 48 -131.5 121t-46.5 178q0 80 31 148.5t88 119t137 79t178 28.5t178.5 -28.5t137.5 -79t88.5 -119t31.5 -148.5q0 -103 -47 -176t-133 -123q54 -26 98 -61.5t76 -80.5t49.5 -100.5t17.5 -121.5 q0 -97 -36 -178.5t-101 -141t-157 -92.5t-203 -33t-202.5 33t-157 92.5t-101 141t-35.5 178.5zM354 426q0 -54 20 -99.5t56.5 -78t87 -50.5t111.5 -18q60 0 110.5 18t87 50.5t57.5 78t21 99.5q0 52 -21 98.5t-57.5 81t-87 54.5t-110.5 20q-61 0 -111.5 -20t-87 -54.5 t-56.5 -81t-20 -98.5zM412 1071q0 -38 16 -72t44.5 -59.5t68.5 -40t88 -14.5t88.5 14.5t69.5 40t45 59.5t16 72q0 42 -16 75.5t-45 57t-69.5 36.5t-88.5 13t-88 -13t-68.5 -36.5t-44.5 -57t-16 -75.5z" />
<glyph unicode="9" horiz-adv-x="1229" d="M102 997q0 103 36.5 188t102 145.5t157 94t202.5 33.5q129 0 222.5 -42.5t154.5 -116.5t90 -176t29 -220q0 -201 -45 -367.5t-136.5 -288t-232 -192.5t-330.5 -80v218q82 4 161 26.5t146 72.5t116.5 133.5t72.5 211.5q-16 -18 -42.5 -37t-62.5 -34t-81.5 -24.5 t-98.5 -9.5q-100 0 -184.5 33t-146 93.5t-96 146.5t-34.5 192zM328 997q0 -59 19 -105t54.5 -77.5t85 -48t111.5 -16.5q61 0 111.5 17t86 49.5t55 78.5t19.5 104q0 55 -20 100t-56 76.5t-85.5 48.5t-108.5 17q-60 0 -110 -17t-86 -48.5t-56 -77t-20 -101.5z" />
<glyph unicode=":" horiz-adv-x="457" d="M74 125q0 31 11.5 58.5t32 48t48.5 32.5t61 12q32 0 60.5 -12t49.5 -32.5t33.5 -48t12.5 -58.5t-12.5 -58t-33.5 -47.5t-49.5 -32.5t-60.5 -12q-33 0 -61 12t-48.5 32.5t-32 47.5t-11.5 58zM74 840q0 31 11.5 58.5t32 48t48.5 32.5t61 12q32 0 60.5 -12t49.5 -32.5 t33.5 -48t12.5 -58.5t-12.5 -58t-33.5 -47.5t-49.5 -32.5t-60.5 -12q-33 0 -61 12t-48.5 32.5t-32 47.5t-11.5 58z" />
<glyph unicode=";" horiz-adv-x="457" d="M72 119q0 35 12.5 63.5t33 49t48 31.5t57.5 11q32 0 61.5 -11.5t52 -34.5t35.5 -58t13 -82q0 -59 -17.5 -115t-47.5 -104.5t-70.5 -89t-85.5 -68.5l-80 51q14 12 33.5 34.5t38.5 51t33.5 61t19.5 66.5q-27 3 -52 14t-43.5 30t-30 44t-11.5 56zM72 840q0 31 11.5 58.5 t32 48t48.5 32.5t61 12q32 0 60.5 -12t49.5 -32.5t33.5 -48t12.5 -58.5t-12.5 -58t-33.5 -47.5t-49.5 -32.5t-60.5 -12q-33 0 -61 12t-48.5 32.5t-32 47.5t-11.5 58z" />
<glyph unicode="&#x3c;" d="M164 612v181l962 391v-215l-671 -267l671 -266v-215z" />
<glyph unicode="=" d="M164 401v205h962v-205h-962zM164 799v205h962v-205h-962z" />
<glyph unicode="&#x3e;" d="M164 221v215l672 266l-672 267v215l962 -391v-181z" />
<glyph unicode="?" horiz-adv-x="1026" d="M41 979q0 112 35 201t98 150.5t150.5 94.5t191.5 33q107 0 188.5 -31t137 -85.5t84 -128.5t28.5 -160q0 -84 -26 -142t-65.5 -102.5t-85.5 -81.5t-85.5 -78.5t-65.5 -93.5t-26 -127v-39h-213v41q0 73 15 128t40 97.5t57 75.5t65 61t65 54.5t57 56.5t40 66t15 84 q0 44 -14.5 81.5t-43 64.5t-70.5 42.5t-97 15.5q-125 0 -193.5 -72.5t-68.5 -205.5h-213zM338 125q0 31 11.5 58.5t32 48t49 32.5t61.5 12q32 0 60.5 -12t49.5 -32.5t33 -48t12 -58.5t-12 -58t-33 -47.5t-49.5 -32.5t-60.5 -12q-33 0 -61.5 12t-49 32.5t-32 47.5t-11.5 58z " />
<glyph unicode="@" horiz-adv-x="1677" d="M123 690q0 113 26.5 213.5t75.5 186t117 153.5t151.5 116t179 73.5t199.5 25.5q156 0 282 -48.5t215 -132.5t137 -196t48 -239q0 -111 -31.5 -205t-85 -161.5t-123.5 -105.5t-147 -38q-26 0 -51 8t-45 23.5t-34.5 38t-18.5 51.5q-42 -66 -103 -97.5t-137 -31.5 q-66 0 -120.5 25.5t-93 71.5t-60 110.5t-21.5 142.5q0 77 26.5 153t75.5 136t117 97.5t152 37.5q68 0 119.5 -28t83.5 -91l16 92h182l-65 -346q-12 -66 -20.5 -114t-8.5 -74q0 -29 9 -40.5t26 -11.5q34 0 67 28t59.5 76.5t43 113t16.5 137.5q0 94 -34 176.5t-98.5 143 t-157.5 95.5t-211 35q-126 0 -231 -46.5t-180 -127.5t-117 -191t-42 -237q0 -129 37.5 -230.5t108.5 -171t173 -106.5t230 -37q69 0 132 7.5t120 21.5l-43 -182q-98 -15 -217 -15q-158 0 -292 47.5t-231 138.5t-151.5 224.5t-54.5 304.5zM668 672q0 -78 37.5 -125t103.5 -47 q47 0 84 23t63 59t40 81t14 89q0 77 -35.5 123.5t-104.5 46.5q-44 0 -81 -20t-64 -54.5t-42 -79.5t-15 -96z" />
<glyph unicode="A" horiz-adv-x="1425" d="M86 0l518 1434h219l516 -1434h-221l-114 330h-580l-117 -330h-221zM489 518h449l-174 488q-12 34 -26.5 79t-22.5 82q-10 -37 -23.5 -81.5t-25.5 -79.5z" />
<glyph unicode="B" horiz-adv-x="1364" d="M184 0v1434h543q128 0 215 -32.5t140 -86t75.5 -122.5t22.5 -142q0 -90 -49 -169.5t-148 -127.5q67 -24 114 -60.5t77 -80.5t43.5 -93.5t13.5 -99.5q0 -73 -24.5 -148t-80.5 -135.5t-146.5 -98.5t-221.5 -38h-574zM397 197h377q71 0 117.5 19t73.5 49.5t38 68.5t11 76 q0 45 -13 87.5t-47 75t-92.5 52.5t-148.5 20h-316v-448zM397 842h295q67 0 118 14.5t85 41t51 62.5t17 80q0 35 -9 70t-34.5 63.5t-70 46t-116.5 17.5h-336v-395z" />
<glyph unicode="C" horiz-adv-x="1331" d="M133 717q0 82 13.5 169t43 169.5t76.5 155.5t113 128t153 87t197 32q101 0 182 -24.5t141.5 -64.5t101.5 -91t63 -104l-195 -91q-26 41 -54.5 72.5t-63 53.5t-77.5 33t-98 11q-72 0 -127.5 -23t-97 -63t-70.5 -93t-46.5 -112.5t-25.5 -122.5t-8 -122q0 -95 21.5 -191 t67.5 -173t117 -125t169 -48q53 0 95.5 13.5t78 38t64 58.5t53.5 75l199 -76q-30 -70 -74.5 -128t-105 -99t-138 -64t-172.5 -23q-111 0 -198.5 30.5t-153.5 83t-112.5 124t-75.5 154t-42.5 172t-13.5 178.5z" />
<glyph unicode="D" horiz-adv-x="1403" d="M184 0v1434h402q125 0 224 -28.5t175 -78.5t130 -118.5t88.5 -148t50.5 -167.5t16 -176q0 -82 -14.5 -167.5t-48 -165t-86.5 -149.5t-130 -122.5t-179.5 -82.5t-233.5 -30h-394zM397 201h215q82 0 146.5 21.5t113 58.5t82 87t55 107.5t31 119t9.5 122.5q0 97 -23.5 189.5 t-73.5 165t-128.5 117t-188.5 44.5h-238v-1032z" />
<glyph unicode="E" horiz-adv-x="1231" d="M184 0v1434h889v-201h-676v-393h437v-201h-437v-438h721v-201h-934z" />
<glyph unicode="F" horiz-adv-x="1145" d="M184 0v1434h889v-201h-676v-393h437v-201h-437v-639h-213z" />
<glyph unicode="G" horiz-adv-x="1413" d="M133 717q0 87 16.5 176t50.5 171.5t85 154.5t120.5 125t157.5 83.5t195 30.5q103 0 179.5 -22.5t134.5 -60.5t100 -87t75 -102l-192 -111q-25 35 -53.5 66.5t-64.5 55.5t-80 38t-99 14q-78 0 -138.5 -23t-105 -62.5t-75.5 -92t-49.5 -111.5t-27 -121.5t-8.5 -121.5 q0 -103 23 -199t72 -170.5t125.5 -119t183.5 -44.5q67 0 123 23.5t96 64.5t62 96t22 119v29h-258v201h477v-187q0 -135 -40 -238.5t-110.5 -174t-165.5 -106.5t-206 -36t-200 29t-158.5 80t-120 121.5t-83 152.5t-48 173.5t-15.5 185.5z" />
<glyph unicode="H" horiz-adv-x="1448" d="M184 0v1434h213v-594h654v594h213v-1434h-213v639h-654v-639h-213z" />
<glyph unicode="I" horiz-adv-x="602" d="M195 0v1434h213v-1434h-213z" />
<glyph unicode="J" horiz-adv-x="1157" d="M51 246l185 90q38 -81 107 -118.5t163 -37.5q51 0 98.5 13t84 49t59 100.5t22.5 167.5v924h213v-953q0 -100 -20.5 -176.5t-55 -133t-81.5 -94t-100 -60.5t-109.5 -32.5t-110.5 -9.5q-77 0 -146 17.5t-127.5 51.5t-104.5 84.5t-77 117.5z" />
<glyph unicode="K" horiz-adv-x="1386" d="M184 0v1434h213v-695l553 695h246l-401 -504l510 -930h-250l-404 750l-254 -308v-442h-213z" />
<glyph unicode="L" horiz-adv-x="1190" d="M184 0v1434h213v-1229h701v-205h-914z" />
<glyph unicode="M" horiz-adv-x="1647" d="M184 0v1434h215l385 -895l39 -105l41 105l383 895h215v-1434h-213v784l6 215l-84 -221l-346 -803l-348 809l-86 215l6 -215v-784h-213z" />
<glyph unicode="N" horiz-adv-x="1454" d="M184 0v1434h215l605 -957l59 -110l-6 108v959h213v-1434h-201l-620 973l-58 106l6 -106v-973h-213z" />
<glyph unicode="O" horiz-adv-x="1516" d="M133 717q0 88 14.5 177.5t45.5 172t80 154t118.5 124t160.5 83t206 30.5t206 -30.5t160.5 -83t118.5 -124t80 -154t45 -172t14 -177.5q0 -89 -14 -178.5t-45 -172t-80 -154t-118.5 -124t-160.5 -83t-206 -30.5t-206 30.5t-160.5 83t-118.5 124t-80 154t-45.5 172 t-14.5 178.5zM354 717q0 -94 21 -189.5t69 -173t125 -126t189 -48.5q75 0 134 23.5t103.5 63.5t76 93.5t51.5 113t29 122t9 121.5q0 62 -9 126.5t-29 124t-51.5 111.5t-76 90.5t-103.5 61t-134 22.5t-134 -23.5t-104 -63.5t-76.5 -93.5t-51.5 -113t-29 -122t-9 -120.5z" />
<glyph unicode="P" horiz-adv-x="1315" d="M184 0v1434h576q132 0 222.5 -38.5t146 -100.5t80 -140.5t24.5 -159.5q0 -50 -11.5 -102t-35.5 -100.5t-62 -91.5t-90.5 -75t-120.5 -50.5t-153 -18.5h-363v-557h-213zM397 762h375q67 0 112.5 21t74 54.5t41 75t12.5 82.5q0 38 -11 79t-38 75.5t-73.5 57t-117.5 22.5 h-375v-467z" />
<glyph unicode="Q" horiz-adv-x="1516" d="M133 717q0 88 14.5 177.5t45.5 172t80 154t118.5 124t160.5 83t206 30.5t206 -30.5t160.5 -83t118.5 -124t80 -154t45 -172t14 -177.5q0 -83 -12.5 -166.5t-39 -162t-69 -148t-102.5 -123.5l96 -144l-163 -110l-103 151q-51 -18 -108 -28.5t-123 -10.5q-115 0 -206 30.5 t-160.5 83t-118.5 124t-80 154t-45.5 172t-14.5 178.5zM354 717q0 -94 21 -189.5t69 -173t125 -126t189 -48.5q29 0 56.5 3.5t51.5 11.5l-108 163l168 111l106 -162q34 41 58.5 90.5t40.5 103t23 109t7 107.5q0 62 -9 126.5t-29 124t-51.5 111.5t-76 90.5t-103.5 61 t-134 22.5t-134 -23.5t-104 -63.5t-76.5 -93.5t-51.5 -113t-29 -122t-9 -120.5z" />
<glyph unicode="R" horiz-adv-x="1384" d="M184 0v1434h604q132 0 221 -36t143 -95.5t76.5 -135.5t22.5 -157q0 -62 -18 -125t-55.5 -118.5t-96.5 -98t-141 -64.5l295 -604h-244l-282 586h-312v-586h-213zM397 791h396q67 0 112 18.5t73 49.5t40 70t12 81q0 37 -10.5 76t-37.5 71t-73 52t-116 20h-396v-438z" />
<glyph unicode="S" horiz-adv-x="1237" d="M102 324l201 73q22 -48 54.5 -88t74.5 -68.5t92.5 -44.5t108.5 -16t106 14t82 42t53 69.5t19 95.5q0 64 -32 107.5t-84 75.5t-118.5 56t-136 49t-136 56t-118.5 76t-84 108t-32 154q0 76 30.5 144t88.5 119.5t143 81.5t194 30q91 0 165 -21.5t129.5 -59.5t92.5 -90 t56 -113l-197 -66q-13 31 -36 57.5t-56 46t-75.5 30.5t-94.5 11q-103 0 -161 -45t-58 -127q0 -51 32 -86.5t84 -62.5t118.5 -49.5t136 -49t136 -61t118.5 -84t84 -119t32 -166.5q0 -103 -37.5 -182.5t-103.5 -134t-155.5 -83t-192.5 -28.5q-96 0 -179.5 24.5t-151 70 t-116.5 110t-76 144.5z" />
<glyph unicode="T" horiz-adv-x="1208" d="M92 1229v205h1024v-205h-405v-1229h-213v1229h-406z" />
<glyph unicode="U" horiz-adv-x="1427" d="M174 543v891h213v-891q0 -108 25 -178t68.5 -111t103.5 -57.5t129 -16.5t128.5 16.5t104 57.5t69.5 111t25 178v891h213v-891q0 -158 -41 -266.5t-113.5 -175.5t-171.5 -96.5t-214 -29.5q-111 0 -209.5 29t-171.5 95.5t-115.5 175t-42.5 268.5z" />
<glyph unicode="V" horiz-adv-x="1358" d="M82 1434h229l326 -1000q9 -29 21.5 -71.5t23.5 -92.5q11 50 23.5 92.5t21.5 71.5l322 1000h227l-490 -1434h-213z" />
<glyph unicode="W" horiz-adv-x="1745" d="M92 1434h219l178 -883q13 -62 20.5 -100t10.5 -66q3 28 12.5 65.5t24.5 100.5l225 883h179l231 -881q17 -62 25.5 -99t11.5 -65q3 28 9.5 66t18.5 98l181 881h215l-310 -1434h-192l-248 930q-15 57 -23.5 92.5t-11.5 62.5q-3 -27 -11 -62.5t-23 -92.5l-242 -930h-193z " />
<glyph unicode="X" horiz-adv-x="1331" d="M102 0l441 741l-410 693h246l287 -486l286 486h246l-410 -693l441 -741h-246l-317 535l-318 -535h-246z" />
<glyph unicode="Y" horiz-adv-x="1364" d="M72 1434h243l367 -656l367 656h243l-504 -871v-563h-213v561z" />
<glyph unicode="Z" horiz-adv-x="1356" d="M113 0v172l827 1057h-780v205h1063v-172l-830 -1057h830v-205h-1110z" />
<glyph unicode="[" horiz-adv-x="762" d="M205 -266v1724h475v-201h-262v-1323h262v-200h-475z" />
<glyph unicode="\" horiz-adv-x="1010" d="M-31 1458h215l805 -1724h-215z" />
<glyph unicode="]" horiz-adv-x="762" d="M82 -66h262v1323h-262v201h475v-1724h-475v200z" />
<glyph unicode="^" d="M143 717l412 741h180l412 -741h-219l-283 471l-283 -471h-219z" />
<glyph unicode="_" horiz-adv-x="1024" d="M-10 -178h1044v-184h-1044v184z" />
<glyph unicode="`" horiz-adv-x="819" d="M86 1499h291l291 -319h-217z" />
<glyph unicode="a" horiz-adv-x="1090" d="M92 326q0 90 34 155.5t90 108t128.5 62.5t149.5 20q72 0 138.5 -15.5t119.5 -46.5v58q0 59 -13.5 100t-41 66.5t-69.5 37t-100 11.5q-98 0 -169.5 -26t-129.5 -69l-63 175q32 22 73 41.5t90 34.5t106 23.5t122 8.5q44 0 91 -5t91.5 -19.5t84 -41.5t69 -70.5t46.5 -106.5 t17 -150v-678h-204v90q-20 -21 -48 -41.5t-63.5 -37t-79.5 -26.5t-96 -10q-80 0 -148 22t-118 66.5t-78.5 110t-28.5 152.5zM297 326q0 -75 52.5 -118.5t154.5 -43.5q81 0 143.5 33t104.5 79v160q-44 23 -103 37t-121 14q-48 0 -90 -9t-73.5 -28.5t-49.5 -50t-18 -73.5z" />
<glyph unicode="b" horiz-adv-x="1151" d="M154 0v1380l213 99v-512q40 45 100.5 74.5t146.5 29.5q96 0 176 -37t137.5 -107.5t89.5 -172t32 -230.5q0 -133 -30 -235.5t-86.5 -172t-137 -105.5t-181.5 -36q-45 0 -81.5 8.5t-66.5 23t-54 34.5t-45 43v-84h-213zM367 295q35 -57 92.5 -88t128.5 -31q61 0 107 24.5 t77.5 69.5t47.5 109.5t16 144.5q0 169 -63.5 257.5t-184.5 88.5q-41 0 -76 -11t-63.5 -28t-49 -38t-32.5 -41v-457z" />
<glyph unicode="c" horiz-adv-x="1061" d="M102 522q0 129 32 231t91.5 172.5t144 108t189.5 37.5q146 0 247.5 -65t147.5 -205l-202 -70q-23 60 -70 97.5t-115 37.5q-60 0 -106 -24t-77.5 -68.5t-48 -108t-16.5 -143.5t16.5 -143.5t47 -107.5t75 -67.5t101.5 -23.5q72 0 123.5 40t73.5 114l202 -64 q-42 -146 -142.5 -220.5t-256.5 -74.5q-105 0 -189.5 37t-144 107.5t-91.5 172t-32 230.5z" />
<glyph unicode="d" horiz-adv-x="1151" d="M102 524q0 129 32 230.5t89.5 172t137.5 107.5t176 37q86 0 146.5 -28t100.5 -70v407l213 99v-1479h-213v74q-42 -47 -100.5 -73t-146.5 -26q-99 0 -179.5 37.5t-137.5 108t-87.5 172.5t-30.5 231zM315 524q0 -76 17.5 -139.5t50 -110t79 -72.5t105.5 -26q72 0 127 31 t90 88v461q-12 20 -32 40t-47.5 36.5t-62 27t-75.5 10.5q-120 0 -186 -88.5t-66 -257.5z" />
<glyph unicode="e" horiz-adv-x="1120" d="M102 524q0 129 34 230.5t96.5 172t150 107.5t195.5 37q93 0 174.5 -29.5t143 -90t97 -152.5t35.5 -217q0 -34 -1.5 -72t-6.5 -66h-705q1 -65 23.5 -116.5t59.5 -88t84 -56t98 -19.5q65 0 120.5 27t96.5 79l139 -143q-57 -68 -146 -110t-212 -42q-109 0 -197 37.5 t-150 108t-95.5 172.5t-33.5 231zM315 616h500q-2 73 -23 124t-55 82.5t-75.5 46t-83.5 14.5q-50 0 -96 -14.5t-81.5 -46t-58.5 -82.5t-27 -124z" />
<glyph unicode="f" horiz-adv-x="686" d="M72 862v185h155v167q0 72 21 119.5t54.5 75t76.5 38.5t88 11q62 0 112 -13t97 -36v-176q-48 20 -83 28.5t-67 8.5q-26 0 -42.5 -7t-26.5 -20t-13.5 -30t-3.5 -37v-129h236v-185h-236v-862h-213v862h-155z" />
<glyph unicode="g" horiz-adv-x="1151" d="M102 524q0 129 32 230.5t89.5 172t137.5 107.5t176 37q46 0 84 -8.5t68.5 -22.5t54 -31.5t40.5 -35.5v74h213v-967q0 -120 -24 -204t-82 -144q-39 -40 -85.5 -65.5t-97 -41.5t-102.5 -23.5t-102 -11.5l-107 164q115 7 190 27t119 50.5t61 71.5t17 89v92 q-87 -109 -252 -109q-90 0 -168 34.5t-136.5 103.5t-92 171.5t-33.5 239.5zM315 524q0 -80 18 -144.5t51 -109.5t80.5 -69.5t106.5 -24.5q65 0 121.5 32t91.5 91v453q-16 26 -39.5 47.5t-51 37.5t-59 24.5t-63.5 8.5q-125 0 -190.5 -88.5t-65.5 -257.5z" />
<glyph unicode="h" horiz-adv-x="1157" d="M154 0v1380l213 99v-533q51 65 117 95t153 30q82 0 151 -23.5t119.5 -76.5t78.5 -138t28 -208v-625h-213v625q0 66 -16 112.5t-44 76t-66 43t-83 13.5q-48 0 -89 -12.5t-71 -40.5t-47.5 -74.5t-17.5 -113.5v-629h-213z" />
<glyph unicode="i" horiz-adv-x="524" d="M133 1339q0 27 10 50.5t27.5 41t41 27.5t50.5 10t50.5 -10t41 -27.5t27.5 -41t10 -50.5t-10 -50.5t-27.5 -41t-41 -27.5t-50.5 -10t-50.5 10t-41 27.5t-27.5 41t-10 50.5zM156 0v1047h213v-1047h-213z" />
<glyph unicode="j" horiz-adv-x="524" d="M-129 -281q81 18 135.5 39.5t87.5 51.5t47.5 70.5t14.5 96.5v1070h213v-998q0 -46 -4 -91.5t-15 -88.5t-30 -81.5t-50 -70.5q-36 -38 -74 -64t-76 -43.5t-75 -29t-72 -18.5zM133 1339q0 27 10 50.5t27.5 41t41 27.5t50.5 10t50.5 -10t41 -27.5t27.5 -41t10 -50.5 t-10 -50.5t-27.5 -41t-41 -27.5t-50.5 -10t-50.5 10t-41 27.5t-27.5 41t-10 50.5z" />
<glyph unicode="k" horiz-adv-x="1126" d="M154 0v1378l213 101v-756l309 324h262l-287 -291l393 -756h-233l-309 602l-135 -135v-467h-213z" />
<glyph unicode="l" horiz-adv-x="541" d="M164 0v1378l213 101v-1479h-213z" />
<glyph unicode="m" horiz-adv-x="1739" d="M154 0v1047h213v-97q45 65 114 93t150 28q86 0 159.5 -34.5t118.5 -114.5q50 77 128 113t182 36q80 0 148.5 -23t119 -71t79.5 -123t29 -178v-676h-213v627q0 117 -48 180t-144 63q-43 0 -81 -16t-66.5 -48t-45 -79.5t-16.5 -110.5v-616h-213v627q0 117 -48.5 180 t-144.5 63q-43 0 -80.5 -16t-66 -48t-45 -79.5t-16.5 -110.5v-616h-213z" />
<glyph unicode="n" horiz-adv-x="1157" d="M154 0v1047h213v-101q51 65 117 95t153 30q82 0 151 -23.5t119.5 -76.5t78.5 -138t28 -208v-625h-213v625q0 66 -16 112.5t-44 76t-66 43t-83 13.5q-48 0 -89 -12.5t-71 -40.5t-47.5 -74.5t-17.5 -113.5v-629h-213z" />
<glyph unicode="o" horiz-adv-x="1161" d="M102 522q0 129 33.5 231t95.5 172.5t150.5 108t198.5 37.5q109 0 198 -37.5t151 -108t96 -172.5t34 -231t-34 -230.5t-96 -172t-151 -107.5t-198 -37q-110 0 -198.5 37t-150.5 107.5t-95.5 172t-33.5 230.5zM315 522q0 -81 18.5 -145t53 -108.5t83.5 -68.5t110 -24 t110.5 24t84 68.5t53 108.5t18.5 145t-18.5 145.5t-53 109.5t-84 69t-110.5 24t-110 -24t-83.5 -69t-53 -109.5t-18.5 -145.5z" />
<glyph unicode="p" horiz-adv-x="1151" d="M154 -412v1459h213v-84q41 46 101 77t150 31q99 0 179 -37.5t136 -108t86 -172.5t30 -231t-31.5 -230.5t-88 -172t-136 -107.5t-175.5 -37q-46 0 -83.5 9t-68.5 25t-55.5 36.5t-43.5 44.5v-403zM367 297q18 -24 40.5 -46t50 -38.5t60 -26.5t70.5 -10q121 0 184.5 89 t63.5 257q0 76 -16.5 140t-48.5 110t-78 72t-105 26q-75 0 -130.5 -30.5t-90.5 -87.5v-455z" />
<glyph unicode="q" horiz-adv-x="1151" d="M102 522q0 129 30.5 231t87.5 172.5t137.5 108t179.5 37.5q87 0 146.5 -31t100.5 -77v84h213v-1360l-213 -97v500q-42 -51 -101.5 -83t-145.5 -32q-96 0 -176 37t-137.5 107.5t-89.5 172t-32 230.5zM315 522q0 -168 63.5 -257t184.5 -89q41 0 75 11.5t61.5 29t48.5 39 t36 41.5v455q-37 60 -93.5 89t-127.5 29q-59 0 -105 -26t-78 -72t-48.5 -110t-16.5 -140z" />
<glyph unicode="r" horiz-adv-x="827" d="M154 0v1047h213v-127q37 80 96 115.5t137 35.5q104 0 176 -63l-31 -197q-29 20 -68.5 35.5t-96.5 15.5q-36 0 -73.5 -12.5t-68.5 -44t-51 -84t-20 -133.5v-588h-213z" />
<glyph unicode="s" horiz-adv-x="973" d="M82 145l151 129q16 -15 39 -33.5t53 -34.5t67 -27t81 -11q40 0 74 6t58.5 19t38 34.5t13.5 53.5q0 37 -25.5 63.5t-66.5 48t-93 41t-105 41.5q-49 21 -96 46t-83.5 60t-59 83.5t-22.5 117.5q0 70 28.5 124t78 90.5t116 55.5t142.5 19q67 0 123.5 -13t102 -35t80.5 -50.5 t61 -59.5l-154 -122q-14 14 -33.5 29.5t-45.5 28.5t-59 21.5t-75 8.5q-68 0 -107.5 -25t-39.5 -72q0 -30 21 -52.5t57 -41.5t82.5 -36.5t97.5 -37.5q54 -21 106 -47t92.5 -64t65 -92t24.5 -130q0 -75 -28 -132.5t-79.5 -96t-124 -58t-161.5 -19.5q-62 0 -121 12t-110.5 34 t-93.5 53.5t-70 70.5z" />
<glyph unicode="t" horiz-adv-x="776" d="M61 862v185h162v329l213 103v-432h248v-185h-248v-571q0 -26 4.5 -48t16 -38t31.5 -24.5t51 -8.5q76 0 155 49l-26 -198q-44 -22 -96 -35t-115 -13q-62 0 -106.5 18.5t-73 52.5t-41.5 82.5t-13 107.5v626h-162z" />
<glyph unicode="u" horiz-adv-x="1157" d="M143 422v625h213v-625q0 -66 16 -112.5t44 -76.5t66 -43.5t83 -13.5q48 0 89 12.5t71.5 41t48 74.5t17.5 114v629h213v-1047h-213v100q-51 -65 -117.5 -95t-153.5 -30q-82 0 -151 23.5t-119.5 77t-78.5 138.5t-28 208z" />
<glyph unicode="v" horiz-adv-x="1067" d="M51 1047h213l242 -687q9 -27 15.5 -47t13.5 -45q6 25 12.5 45t15.5 47l240 687h213l-383 -1047h-199z" />
<glyph unicode="w" horiz-adv-x="1487" d="M72 1047h209l147 -652q8 -34 12.5 -59.5t8.5 -46.5q3 21 8.5 48t13.5 58l174 652h197l174 -652q8 -31 13.5 -58t8.5 -48q3 21 8 46.5t13 59.5l147 652h209l-278 -1047h-189l-174 608q-5 18 -10.5 37t-10 36.5t-8 32.5t-4.5 25q-2 -10 -4.5 -25.5t-6.5 -33.5t-9 -37 t-10 -37l-172 -606h-189z" />
<glyph unicode="x" horiz-adv-x="1085" d="M72 0l348 545l-320 502h244l145 -228q17 -28 30.5 -51t23.5 -43q11 20 23.5 44t29.5 50l145 228h244l-321 -502l350 -545h-244l-174 270q-17 26 -29.5 50.5t-23.5 44.5q-10 -20 -23.5 -44.5t-30.5 -50.5l-174 -270h-243z" />
<glyph unicode="y" horiz-adv-x="1102" d="M51 1047h211l258 -685q11 -29 17 -48t12 -44q6 25 12 44t17 48l260 685h213l-553 -1444h-217l161 415z" />
<glyph unicode="z" horiz-adv-x="1047" d="M113 0v174l555 684h-514v189h770v-168l-555 -691h553v-188h-809z" />
<glyph unicode="{" horiz-adv-x="750" d="M82 504v186h31q60 0 91.5 47.5t31.5 124.5v119q0 117 31 205.5t87.5 148t136 90.5t177.5 33v-188q-110 -5 -164.5 -69.5t-54.5 -182.5v-133q0 -76 -13 -128t-37.5 -85t-61 -51t-83.5 -25q47 -8 83.5 -25.5t61 -50.5t37.5 -85t13 -128v-133q0 -118 54.5 -182.5 t164.5 -69.5v-188q-98 2 -177.5 33t-136 90.5t-87.5 148t-31 205.5v121q0 77 -31.5 124.5t-91.5 47.5h-31z" />
<glyph unicode="|" horiz-adv-x="561" d="M174 -420v2069h213v-2069h-213z" />
<glyph unicode="}" horiz-adv-x="750" d="M82 -78q109 5 164 69.5t55 182.5v133q0 76 13 128t37.5 85t61 50.5t83.5 25.5q-47 7 -83.5 25t-61 51t-37.5 85t-13 128v133q0 118 -55 182.5t-164 69.5v188q97 -2 177 -33t136.5 -90.5t87.5 -148t31 -205.5v-119q0 -77 31.5 -124.5t91.5 -47.5h31v-186h-31 q-60 0 -91.5 -47.5t-31.5 -124.5v-121q0 -117 -31 -205.5t-87.5 -148t-136.5 -90.5t-177 -33v188z" />
<glyph unicode="~" d="M164 541q0 64 15 122.5t48 103t85 71t126 26.5q65 0 121 -18.5t105.5 -41t95 -41t90.5 -18.5q56 0 87 33.5t36 85.5h153q0 -64 -15 -122.5t-47.5 -103t-84.5 -71t-127 -26.5q-65 0 -121 18.5t-105.5 40.5t-95 40.5t-90.5 18.5q-55 0 -86.5 -33t-36.5 -85h-153z" />
<glyph unicode="&#xa1;" horiz-adv-x="565" d="M129 920q0 30 11.5 57.5t32.5 48.5t49 33t61 12q32 0 60.5 -12t49.5 -33t33 -48.5t12 -57.5q0 -31 -12 -58t-33 -47.5t-49.5 -32.5t-60.5 -12q-33 0 -61 12t-49 32.5t-32.5 47.5t-11.5 58zM176 43l60 608h94l59 -608v-453h-213v453z" />
<glyph unicode="&#xa2;" horiz-adv-x="1061" d="M102 717q0 108 23 197.5t65.5 157t104 112.5t139.5 65v209h205v-198q114 -17 194.5 -81t120.5 -184l-202 -69q-23 60 -70 97.5t-115 37.5q-60 0 -106 -24t-77.5 -68.5t-48 -108t-16.5 -143.5t16.5 -143.5t47 -107.5t75 -67.5t101.5 -23.5q72 0 123.5 39.5t73.5 113.5 l202 -63q-74 -254 -319 -289v-201h-205v209q-78 20 -139.5 65t-104 112.5t-65.5 157t-23 198.5z" />
<glyph unicode="&#xa3;" horiz-adv-x="1206" d="M154 580v188h135q-13 27 -26.5 56t-24 62.5t-17 73t-6.5 87.5q0 78 28.5 152t87 131.5t148 92.5t211.5 35q71 0 130 -9.5t111 -27.5t99.5 -45t95.5 -61l-84 -203q-25 22 -56 47t-72.5 46t-96.5 34.5t-127 13.5q-68 0 -116 -18t-78.5 -47t-45 -66t-14.5 -75t9 -71.5 t22.5 -66.5t29 -67.5t29.5 -73.5h342v-188h-309q0 -104 -36.5 -199t-114.5 -176h737v-205h-981v213q51 24 84.5 68t53.5 96.5t28 106.5t8 96h-184z" />
<glyph unicode="&#xa4;" d="M74 270l145 146q-31 55 -46 122t-15 144t16 144t47 124l-147 148l153 153l140 -139q57 37 127 57.5t151 20.5q79 0 148.5 -19.5t126.5 -56.5l137 137l160 -159l-144 -144q29 -57 45.5 -124t16.5 -142q0 -78 -17 -146.5t-49 -125.5l148 -146l-154 -153l-141 141 q-57 -37 -126.5 -56.5t-150.5 -19.5q-161 0 -274 74l-138 -139zM375 682q0 -65 19.5 -120.5t55 -95.5t85 -62.5t110.5 -22.5t111.5 22.5t86.5 62.5t55.5 95.5t19.5 120.5t-19.5 120.5t-55.5 96t-86.5 63.5t-111.5 23t-110.5 -23t-85 -63.5t-55 -96t-19.5 -120.5z" />
<glyph unicode="&#xa5;" horiz-adv-x="1174" d="M31 1434h241l314 -564l313 564h244l-441 -760h283v-185h-293v-135h293v-184h-293v-170h-213v170h-301v184h301v135h-301v185h289z" />
<glyph unicode="&#xa6;" horiz-adv-x="561" d="M174 -246v697h213v-697h-213zM174 778v697h213v-697h-213z" />
<glyph unicode="&#xa7;" horiz-adv-x="1071" d="M102 -55l156 133q18 -18 44.5 -38.5t61.5 -38.5t79.5 -30t97.5 -12q43 0 81 7t66 23.5t44 43t16 65.5q0 42 -28.5 73.5t-75 58.5t-105 50.5t-117.5 49.5q-56 24 -109 50t-94 62t-66.5 85t-25.5 120q0 76 37.5 133t99.5 88q-66 45 -101.5 111.5t-35.5 153.5q0 78 31 138.5 t85 102t127.5 63t157.5 21.5q75 0 136 -14t110.5 -38t87.5 -55t66 -65l-162 -129q-15 16 -36.5 33t-51 31t-66.5 23t-84 9q-83 0 -131.5 -31t-48.5 -89q0 -34 24 -61.5t64.5 -51t93.5 -45t111 -43.5q62 -25 121 -52t105 -66t74 -93.5t28 -134.5q0 -151 -119 -221 q62 -51 90.5 -115t28.5 -146q0 -83 -29 -148t-84 -110t-134 -68.5t-179 -23.5q-75 0 -141 14t-122.5 39.5t-101.5 60.5t-76 77zM348 662q0 -35 26 -61.5t71 -49t104.5 -43.5t126.5 -45q34 14 53 41t19 65q0 37 -23.5 65.5t-63 51.5t-91 42.5t-107.5 39.5q-54 -9 -84.5 -36.5 t-30.5 -69.5z" />
<glyph unicode="&#xa8;" horiz-adv-x="819" d="M96 1339q0 27 10 50.5t27.5 41t41 27.5t50.5 10t50.5 -10t41 -27.5t27.5 -41t10 -50.5t-10 -50.5t-27.5 -41t-41 -27.5t-50.5 -10t-50.5 10t-41 27.5t-27.5 41t-10 50.5zM465 1339q0 27 10 50.5t27.5 41t41 27.5t50.5 10t50.5 -10t41 -27.5t27.5 -41t10 -50.5t-10 -50.5 t-27.5 -41t-41 -27.5t-50.5 -10t-50.5 10t-41 27.5t-27.5 41t-10 50.5z" />
<glyph unicode="&#xa9;" horiz-adv-x="1729" d="M123 717q0 105 25.5 200.5t73 178t114.5 149.5t149.5 114.5t178 73t200.5 25.5t201 -25.5t178 -73t149.5 -114.5t114.5 -149.5t73 -178t26 -200.5t-26 -201t-73 -178t-114.5 -149.5t-149.5 -114.5t-178 -73t-201 -26q-158 0 -293 57t-235 156.5t-156.5 235t-56.5 293.5z M281 717q0 -127 43.5 -235.5t121 -188t184.5 -125t234 -45.5t234 45.5t185 125t121.5 188t43.5 235.5t-43.5 235.5t-121.5 188t-185 125t-234 45.5t-234 -45.5t-184.5 -125t-121 -188t-43.5 -235.5zM512 717q0 49 8 101.5t26 102t46 93.5t68 77t92.5 52.5t119.5 19.5 q62 0 112 -16t87.5 -42t63 -59t39.5 -67l-136 -64q-32 49 -68.5 75t-97.5 26q-57 0 -96 -28t-62.5 -71.5t-33.5 -96.5t-10 -103q0 -53 11.5 -106.5t36.5 -96.5t63 -69.5t91 -26.5q58 0 96.5 30t69.5 76l138 -49q-20 -45 -48 -83t-65.5 -65t-85 -42t-105.5 -15 q-101 0 -170 40t-111 103.5t-60.5 143.5t-18.5 160z" />
<glyph unicode="&#xaa;" horiz-adv-x="895" d="M72 848q0 75 29 129t76 89t105.5 52t118.5 17q54 0 106.5 -11.5t94.5 -31.5v34q0 94 -42 132t-130 38q-74 0 -133 -21t-109 -58l-53 151q54 38 134.5 64t183.5 26q55 0 113.5 -10t106.5 -43.5t78.5 -97.5t30.5 -172v-555h-180v61q-17 -15 -40.5 -30t-52.5 -26.5 t-62.5 -18.5t-69.5 -7q-65 0 -121 18.5t-97 54.5t-64 90t-23 126zM256 848q0 -59 40.5 -93t113.5 -34q28 0 55.5 6.5t52.5 18t46.5 26t37.5 29.5v135q-18 8 -39 15t-44 12.5t-45.5 8.5t-43.5 3q-34 0 -65.5 -7t-55.5 -22.5t-38.5 -39.5t-14.5 -58z" />
<glyph unicode="&#xab;" horiz-adv-x="1073" d="M61 524l312 523h231l-311 -523l311 -524h-231zM500 524l311 523h231l-311 -523l311 -524h-231z" />
<glyph unicode="&#xac;" d="M164 764v205h962v-625h-213v420h-749z" />
<glyph unicode="&#xad;" horiz-adv-x="809" d="M154 506v205h501v-205h-501z" />
<glyph unicode="&#xae;" horiz-adv-x="1729" d="M123 717q0 105 25.5 200.5t73 178t114.5 149.5t149.5 114.5t178 73t200.5 25.5t201 -25.5t178 -73t149.5 -114.5t114.5 -149.5t73 -178t26 -200.5t-26 -201t-73 -178t-114.5 -149.5t-149.5 -114.5t-178 -73t-201 -26q-158 0 -293 57t-235 156.5t-156.5 235t-56.5 293.5z M281 717q0 -127 43.5 -235.5t121 -188t184.5 -125t234 -45.5t234 45.5t185 125t121.5 188t43.5 235.5t-43.5 235.5t-121.5 188t-185 125t-234 45.5t-234 -45.5t-184.5 -125t-121 -188t-43.5 -235.5zM571 285v864h340q81 0 135.5 -22t87.5 -58t47.5 -82.5t14.5 -95.5 q0 -38 -10.5 -75.5t-32.5 -70.5t-56 -59t-81 -41q42 -87 88 -180.5t88 -179.5h-176l-166 346h-127v-346h-152zM723 776h188q36 0 60.5 9t38.5 25t20 37t6 44q0 20 -5 40t-19 36.5t-38 26.5t-63 10h-188v-228z" />
<glyph unicode="&#xaf;" horiz-adv-x="819" d="M72 1223v176h676v-176h-676z" />
<glyph unicode="&#xb0;" horiz-adv-x="819" d="M49 1284q0 76 28 141t77 112t115 74t141 27t140.5 -27t113.5 -74t76 -112t28 -141q0 -75 -28 -140t-76 -113t-113.5 -75.5t-140.5 -27.5t-141 27.5t-115 75.5t-77 113t-28 140zM258 1284q0 -34 11.5 -63t32 -50.5t48.5 -34t60 -12.5t59.5 12.5t47.5 34t31 50.5t11 63 t-11 63t-31 50t-47.5 33t-59.5 12t-60 -12t-48.5 -33t-32 -50t-11.5 -63z" />
<glyph unicode="&#xb1;" d="M164 0v205h962v-205h-962zM164 723v205h375v317h213v-317h374v-205h-374v-317h-213v317h-375z" />
<glyph unicode="&#xb2;" horiz-adv-x="731" d="M49 1534q11 54 39 100.5t68.5 80.5t92 53.5t109.5 19.5q69 0 123.5 -19.5t92.5 -55t58.5 -84t20.5 -105.5t-18 -98t-49.5 -72t-74 -56.5t-91.5 -50.5q-71 -37 -109.5 -82.5t-60.5 -95.5h401v-160h-600q0 92 24 168t65.5 136t96 105t115.5 77q25 13 47 26t39 28t27 34 t10 45q0 40 -30 70t-87 30q-58 0 -94.5 -35t-48.5 -98z" />
<glyph unicode="&#xb3;" horiz-adv-x="711" d="M25 1145l168 45q17 -72 60 -104.5t91 -32.5q53 0 88 28t35 82q0 22 -7.5 42t-23.5 35.5t-41 24.5t-59 9h-64v160h62q54 0 78 28t24 68q0 42 -25 70t-73 28t-75.5 -27.5t-43.5 -72.5l-164 59q37 91 110.5 146t176.5 55q64 0 114 -20t84.5 -54.5t53 -79.5t18.5 -96 q0 -53 -27.5 -101t-72.5 -77q62 -28 96.5 -82t34.5 -117q0 -62 -22.5 -111.5t-62.5 -84t-96.5 -53.5t-123.5 -19q-119 0 -199 66.5t-114 185.5z" />
<glyph unicode="&#xb4;" horiz-adv-x="819" d="M152 1180l290 319h291l-364 -319h-217z" />
<glyph unicode="&#xb5;" horiz-adv-x="1157" d="M143 -410v1457h213v-625q0 -72 15 -119.5t42.5 -75.5t66 -39.5t85.5 -11.5q48 0 89 12.5t71.5 41t48 74.5t17.5 114v629h213v-1047h-213v100q-51 -65 -115 -95t-135 -30q-122 0 -185 84v-368z" />
<glyph unicode="&#xb6;" horiz-adv-x="1286" d="M41 999q0 81 24.5 159t80 139.5t146 99t222.5 37.5h608v-1581l-213 -97v1473h-176v-1542l-213 -97v975q-130 0 -221 39.5t-148.5 102.5t-83.5 140t-26 152z" />
<glyph unicode="&#xb7;" horiz-adv-x="457" d="M74 715q0 31 11.5 58.5t32 48t48.5 32.5t61 12q32 0 60.5 -12t49.5 -32.5t33.5 -48t12.5 -58.5t-12.5 -58t-33.5 -47.5t-49.5 -32.5t-60.5 -12q-33 0 -61 12t-48.5 32.5t-32 47.5t-11.5 58z" />
<glyph unicode="&#xb8;" horiz-adv-x="819" d="M195 -412l104 76q12 -15 31.5 -23t48.5 -8q46 0 74 25t28 66q0 38 -31.5 63t-78.5 25q-49 0 -82 -21l-41 51l143 178h117l-76 -122q60 0 102.5 -14.5t70 -38.5t40 -56t12.5 -68q0 -46 -18 -84.5t-51.5 -66.5t-81.5 -43.5t-107 -15.5q-74 0 -123.5 21.5t-80.5 55.5z" />
<glyph unicode="&#xb9;" horiz-adv-x="410" d="M20 1593v125q32 0 55.5 3.5t40.5 10t29 17t21 25.5h135v-865h-168v684h-113z" />
<glyph unicode="&#xba;" horiz-adv-x="950" d="M82 1008q0 106 27.5 189.5t78 141.5t123 88.5t162.5 30.5t163 -30.5t124.5 -88.5t79.5 -141.5t28 -189.5t-28 -189.5t-79.5 -141t-124.5 -88t-163 -30.5t-162.5 30.5t-123 88t-78 141t-27.5 189.5zM266 1008q0 -129 55 -202t152 -73q100 0 154.5 72.5t54.5 202.5 q0 131 -54.5 203.5t-154.5 72.5q-97 0 -152 -72.5t-55 -203.5z" />
<glyph unicode="&#xbb;" horiz-adv-x="1073" d="M31 0l311 524l-311 523h231l311 -523l-311 -524h-231zM469 0l311 524l-311 523h231l312 -523l-312 -524h-231z" />
<glyph unicode="&#xbc;" horiz-adv-x="1405" d="M20 -25l979 1483h195l-979 -1483h-195zM30 1264v125q32 0 55.5 3t40.5 10t29 17t21 25h135v-864h-168v684h-113zM649 176v109l441 581h157v-532h111v-158h-111v-176h-163v176h-435zM860 334h224v291z" />
<glyph unicode="&#xbd;" horiz-adv-x="1495" d="M20 -25l979 1483h195l-979 -1483h-195zM30 1264v125q32 0 55.5 3t40.5 10t29 17t21 25h135v-864h-168v684h-113zM813 625q11 54 39 100.5t68.5 80.5t92 53.5t109.5 19.5q69 0 123.5 -20t92.5 -55t58.5 -83.5t20.5 -106.5q0 -57 -18 -97.5t-49.5 -71.5t-74 -56.5 t-91.5 -50.5q-71 -37 -109.5 -83t-60.5 -95h401v-160h-600q0 92 24 167.5t65.5 135.5t96 105t115.5 77q25 13 47 26t39 28.5t27 34.5t10 44q0 41 -30 71t-87 30q-58 0 -94.5 -35t-48.5 -98z" />
<glyph unicode="&#xbe;" horiz-adv-x="1651" d="M25 815l168 45q17 -72 60 -104.5t91 -32.5q53 0 88 28.5t35 82.5q0 21 -7.5 41t-23.5 35.5t-41 24.5t-59 9h-64v160h62q54 0 78 28t24 68q0 42 -25 70t-73 28t-75.5 -27.5t-43.5 -72.5l-164 59q37 91 110.5 146t176.5 55q64 0 114 -20t84.5 -54.5t53 -79.5t18.5 -96 q0 -52 -27.5 -100.5t-72.5 -77.5q62 -28 96.5 -82t34.5 -117q0 -61 -22.5 -110.5t-62.5 -84.5t-96.5 -54t-123.5 -19q-119 0 -199 66.5t-114 185.5zM266 -25l979 1483h195l-979 -1483h-195zM895 176v109l441 581h157v-532h111v-158h-111v-176h-163v176h-435zM1106 334h224 v291z" />
<glyph unicode="&#xbf;" horiz-adv-x="1026" d="M72 -4q0 84 26 142t65.5 102.5t85.5 81.5t85.5 78.5t65.5 93.5t26 127v38h213v-41q0 -73 -15 -128t-40 -97.5t-57 -75t-65 -61t-65 -54.5t-57 -56t-40 -66t-15 -84q0 -45 15 -82.5t43.5 -64.5t70.5 -42.5t96 -15.5q125 0 193.5 73t68.5 206h213q0 -112 -35 -201t-98 -151 t-150.5 -95t-191.5 -33q-107 0 -188.5 31t-137 86t-84 129t-28.5 160zM381 920q0 30 11.5 57.5t32 48.5t49 33t61.5 12q32 0 60.5 -12t49.5 -33t33 -48.5t12 -57.5q0 -31 -12 -58t-33 -47.5t-49.5 -32.5t-60.5 -12q-33 0 -61.5 12t-49 32.5t-32 47.5t-11.5 58z" />
<glyph unicode="&#xc0;" horiz-adv-x="1425" d="M86 0l518 1434h219l516 -1434h-221l-114 330h-580l-117 -330h-221zM389 1888h291l291 -319h-217zM489 518h449l-174 488q-12 34 -26.5 79t-22.5 82q-10 -37 -23.5 -81.5t-25.5 -79.5z" />
<glyph unicode="&#xc1;" horiz-adv-x="1425" d="M86 0l518 1434h219l516 -1434h-221l-114 330h-580l-117 -330h-221zM455 1569l290 319h291l-364 -319h-217zM489 518h449l-174 488q-12 34 -26.5 79t-22.5 82q-10 -37 -23.5 -81.5t-25.5 -79.5z" />
<glyph unicode="&#xc2;" horiz-adv-x="1425" d="M86 0l518 1434h219l516 -1434h-221l-114 330h-580l-117 -330h-221zM315 1569l291 319h215l289 -319h-205l-192 161l-193 -161h-205zM489 518h449l-174 488q-12 34 -26.5 79t-22.5 82q-10 -37 -23.5 -81.5t-25.5 -79.5z" />
<glyph unicode="&#xc3;" horiz-adv-x="1425" d="M86 0l518 1434h219l516 -1434h-221l-114 330h-580l-117 -330h-221zM336 1599q0 61 11.5 110.5t37.5 84.5t66.5 53.5t99.5 18.5q54 0 99.5 -15.5t85.5 -34t77 -34t76 -15.5q38 0 65.5 22t30.5 68h104q0 -61 -11.5 -110.5t-37.5 -84t-67 -53t-99 -18.5q-54 0 -99.5 15.5 t-85.5 33.5t-77 33.5t-76 15.5q-38 0 -65.5 -21.5t-30.5 -68.5h-104zM489 518h449l-174 488q-12 34 -26.5 79t-22.5 82q-10 -37 -23.5 -81.5t-25.5 -79.5z" />
<glyph unicode="&#xc4;" horiz-adv-x="1425" d="M86 0l518 1434h219l516 -1434h-221l-114 330h-580l-117 -330h-221zM399 1728q0 27 10 50.5t27.5 41t41 27.5t50.5 10t50.5 -10t41 -27.5t27.5 -41t10 -50.5t-10 -50.5t-27.5 -41t-41 -27.5t-50.5 -10t-50.5 10t-41 27.5t-27.5 41t-10 50.5zM489 518h449l-174 488 q-12 34 -26.5 79t-22.5 82q-10 -37 -23.5 -81.5t-25.5 -79.5zM768 1728q0 27 10 50.5t27.5 41t41 27.5t50.5 10t50.5 -10t41 -27.5t27.5 -41t10 -50.5t-10 -50.5t-27.5 -41t-41 -27.5t-50.5 -10t-50.5 10t-41 27.5t-27.5 41t-10 50.5z" />
<glyph unicode="&#xc5;" horiz-adv-x="1425" d="M86 0l475 1317q-46 35 -73 87t-27 114q0 51 20 96t54.5 78.5t80 53t97.5 19.5q51 0 97 -19.5t80.5 -53t54.5 -78.5t20 -96q0 -62 -28 -113.5t-73 -85.5l475 -1319h-221l-114 330h-580l-117 -330h-221zM489 518h449l-174 488q-12 34 -26.5 79t-22.5 82 q-10 -37 -23.5 -81.5t-25.5 -79.5zM621 1518q0 -42 27 -69.5t65 -27.5t65 27.5t27 69.5q0 41 -27 68.5t-65 27.5t-65 -27.5t-27 -68.5z" />
<glyph unicode="&#xc6;" horiz-adv-x="1718" d="M-31 0l832 1434h801v-201h-562v-393h322v-201h-322v-438h607v-201h-820v330h-442l-186 -330h-230zM496 520h331v598q-8 -18 -18.5 -39t-21.5 -42.5t-22.5 -42t-21.5 -38.5z" />
<glyph unicode="&#xc7;" horiz-adv-x="1331" d="M133 717q0 82 13.5 169t43 169.5t76.5 155.5t113 128t153 87t197 32q101 0 182 -24.5t141.5 -64.5t101.5 -91t63 -104l-195 -91q-26 41 -54.5 72.5t-63 53.5t-77.5 33t-98 11q-72 0 -127.5 -23t-97 -63t-70.5 -93t-46.5 -112.5t-25.5 -122.5t-8 -122q0 -95 21.5 -191 t67.5 -173t117 -125t169 -48q53 0 95.5 13.5t78 38t64 58.5t53.5 75l199 -76q-28 -65 -67.5 -118.5t-92.5 -93.5t-120 -65t-148 -32l-50 -82q60 0 103 -14.5t70 -38.5t40 -56t13 -68q0 -46 -18 -84.5t-52 -66.5t-81.5 -43.5t-106.5 -15.5q-75 0 -124.5 21.5t-80.5 55.5 l104 76q13 -15 32 -23t48 -8q47 0 75 25t28 66q0 38 -32 63t-79 25q-48 0 -82 -21l-41 51l109 138q-99 8 -177 42t-137 88t-101 124t-68 149t-38 164t-12 170z" />
<glyph unicode="&#xc8;" horiz-adv-x="1231" d="M184 0v1434h889v-201h-676v-393h437v-201h-437v-438h721v-201h-934zM260 1888h291l291 -319h-217z" />
<glyph unicode="&#xc9;" horiz-adv-x="1231" d="M184 0v1434h889v-201h-676v-393h437v-201h-437v-438h721v-201h-934zM408 1569l290 319h291l-364 -319h-217z" />
<glyph unicode="&#xca;" horiz-adv-x="1231" d="M184 0v1434h889v-201h-676v-393h437v-201h-437v-438h721v-201h-934zM227 1569l291 319h215l289 -319h-205l-192 161l-193 -161h-205z" />
<glyph unicode="&#xcb;" horiz-adv-x="1231" d="M184 0v1434h889v-201h-676v-393h437v-201h-437v-438h721v-201h-934zM311 1728q0 27 10 50.5t27.5 41t41 27.5t50.5 10t50.5 -10t41 -27.5t27.5 -41t10 -50.5t-10 -50.5t-27.5 -41t-41 -27.5t-50.5 -10t-50.5 10t-41 27.5t-27.5 41t-10 50.5zM680 1728q0 27 10 50.5 t27.5 41t41 27.5t50.5 10t50.5 -10t41 -27.5t27.5 -41t10 -50.5t-10 -50.5t-27.5 -41t-41 -27.5t-50.5 -10t-50.5 10t-41 27.5t-27.5 41t-10 50.5z" />
<glyph unicode="&#xcc;" horiz-adv-x="602" d="M-19 1888h291l291 -319h-217zM195 0v1434h213v-1434h-213z" />
<glyph unicode="&#xcd;" horiz-adv-x="602" d="M47 1569l290 319h291l-364 -319h-217zM195 0v1434h213v-1434h-213z" />
<glyph unicode="&#xce;" horiz-adv-x="602" d="M-93 1569l291 319h215l289 -319h-205l-192 161l-193 -161h-205zM195 0v1434h213v-1434h-213z" />
<glyph unicode="&#xcf;" horiz-adv-x="602" d="M-9 1728q0 27 10 50.5t27.5 41t41 27.5t50.5 10t50.5 -10t41 -27.5t27.5 -41t10 -50.5t-10 -50.5t-27.5 -41t-41 -27.5t-50.5 -10t-50.5 10t-41 27.5t-27.5 41t-10 50.5zM195 0v1434h213v-1434h-213zM360 1728q0 27 10 50.5t27.5 41t41 27.5t50.5 10t50.5 -10t41 -27.5 t27.5 -41t10 -50.5t-10 -50.5t-27.5 -41t-41 -27.5t-50.5 -10t-50.5 10t-41 27.5t-27.5 41t-10 50.5z" />
<glyph unicode="&#xd0;" horiz-adv-x="1403" d="M51 618v197h133v619h402q125 0 224 -28.5t175 -78.5t130 -118.5t88.5 -148t50.5 -167.5t16 -176q0 -82 -14.5 -167.5t-48 -165t-86.5 -149.5t-130 -122.5t-179.5 -82.5t-233.5 -30h-394v618h-133zM397 201h215q82 0 146.5 21.5t113 58.5t82 87t55 107.5t31 119t9.5 122.5 q0 97 -23.5 189.5t-73.5 165t-128.5 117t-188.5 44.5h-238v-418h310v-197h-310v-417z" />
<glyph unicode="&#xd1;" horiz-adv-x="1454" d="M184 0v1434h215l605 -957l59 -110l-6 108v959h213v-1434h-201l-620 973l-58 106l6 -106v-973h-213zM371 1599q0 61 11.5 110.5t37.5 84.5t66.5 53.5t99.5 18.5q54 0 99.5 -15.5t85.5 -34t77 -34t76 -15.5q38 0 65.5 22t30.5 68h104q0 -61 -11.5 -110.5t-37.5 -84t-67 -53 t-99 -18.5q-54 0 -99.5 15.5t-85.5 33.5t-77 33.5t-76 15.5q-38 0 -65.5 -21.5t-30.5 -68.5h-104z" />
<glyph unicode="&#xd2;" horiz-adv-x="1516" d="M133 717q0 88 14.5 177.5t45.5 172t80 154t118.5 124t160.5 83t206 30.5t206 -30.5t160.5 -83t118.5 -124t80 -154t45 -172t14 -177.5q0 -89 -14 -178.5t-45 -172t-80 -154t-118.5 -124t-160.5 -83t-206 -30.5t-206 30.5t-160.5 83t-118.5 124t-80 154t-45.5 172 t-14.5 178.5zM354 717q0 -94 21 -189.5t69 -173t125 -126t189 -48.5q75 0 134 23.5t103.5 63.5t76 93.5t51.5 113t29 122t9 121.5q0 62 -9 126.5t-29 124t-51.5 111.5t-76 90.5t-103.5 61t-134 22.5t-134 -23.5t-104 -63.5t-76.5 -93.5t-51.5 -113t-29 -122t-9 -120.5z M395 1888h291l291 -319h-217z" />
<glyph unicode="&#xd3;" horiz-adv-x="1516" d="M133 717q0 88 14.5 177.5t45.5 172t80 154t118.5 124t160.5 83t206 30.5t206 -30.5t160.5 -83t118.5 -124t80 -154t45 -172t14 -177.5q0 -89 -14 -178.5t-45 -172t-80 -154t-118.5 -124t-160.5 -83t-206 -30.5t-206 30.5t-160.5 83t-118.5 124t-80 154t-45.5 172 t-14.5 178.5zM354 717q0 -94 21 -189.5t69 -173t125 -126t189 -48.5q75 0 134 23.5t103.5 63.5t76 93.5t51.5 113t29 122t9 121.5q0 62 -9 126.5t-29 124t-51.5 111.5t-76 90.5t-103.5 61t-134 22.5t-134 -23.5t-104 -63.5t-76.5 -93.5t-51.5 -113t-29 -122t-9 -120.5z M543 1569l290 319h291l-364 -319h-217z" />
<glyph unicode="&#xd4;" horiz-adv-x="1516" d="M133 717q0 88 14.5 177.5t45.5 172t80 154t118.5 124t160.5 83t206 30.5t206 -30.5t160.5 -83t118.5 -124t80 -154t45 -172t14 -177.5q0 -89 -14 -178.5t-45 -172t-80 -154t-118.5 -124t-160.5 -83t-206 -30.5t-206 30.5t-160.5 83t-118.5 124t-80 154t-45.5 172 t-14.5 178.5zM354 717q0 -94 21 -189.5t69 -173t125 -126t189 -48.5q75 0 134 23.5t103.5 63.5t76 93.5t51.5 113t29 122t9 121.5q0 62 -9 126.5t-29 124t-51.5 111.5t-76 90.5t-103.5 61t-134 22.5t-134 -23.5t-104 -63.5t-76.5 -93.5t-51.5 -113t-29 -122t-9 -120.5z M362 1569l291 319h215l289 -319h-205l-192 161l-193 -161h-205z" />
<glyph unicode="&#xd5;" horiz-adv-x="1516" d="M133 717q0 88 14.5 177.5t45.5 172t80 154t118.5 124t160.5 83t206 30.5t206 -30.5t160.5 -83t118.5 -124t80 -154t45 -172t14 -177.5q0 -89 -14 -178.5t-45 -172t-80 -154t-118.5 -124t-160.5 -83t-206 -30.5t-206 30.5t-160.5 83t-118.5 124t-80 154t-45.5 172 t-14.5 178.5zM354 717q0 -94 21 -189.5t69 -173t125 -126t189 -48.5q75 0 134 23.5t103.5 63.5t76 93.5t51.5 113t29 122t9 121.5q0 62 -9 126.5t-29 124t-51.5 111.5t-76 90.5t-103.5 61t-134 22.5t-134 -23.5t-104 -63.5t-76.5 -93.5t-51.5 -113t-29 -122t-9 -120.5z M383 1599q0 61 11.5 110.5t37.5 84.5t66.5 53.5t99.5 18.5q54 0 99.5 -15.5t85.5 -34t77 -34t76 -15.5q38 0 65.5 22t30.5 68h104q0 -61 -11.5 -110.5t-37.5 -84t-67 -53t-99 -18.5q-54 0 -99.5 15.5t-85.5 33.5t-77 33.5t-76 15.5q-38 0 -65.5 -21.5t-30.5 -68.5h-104z" />
<glyph unicode="&#xd6;" horiz-adv-x="1516" d="M133 717q0 88 14.5 177.5t45.5 172t80 154t118.5 124t160.5 83t206 30.5t206 -30.5t160.5 -83t118.5 -124t80 -154t45 -172t14 -177.5q0 -89 -14 -178.5t-45 -172t-80 -154t-118.5 -124t-160.5 -83t-206 -30.5t-206 30.5t-160.5 83t-118.5 124t-80 154t-45.5 172 t-14.5 178.5zM354 717q0 -94 21 -189.5t69 -173t125 -126t189 -48.5q75 0 134 23.5t103.5 63.5t76 93.5t51.5 113t29 122t9 121.5q0 62 -9 126.5t-29 124t-51.5 111.5t-76 90.5t-103.5 61t-134 22.5t-134 -23.5t-104 -63.5t-76.5 -93.5t-51.5 -113t-29 -122t-9 -120.5z M446 1728q0 27 10 50.5t27.5 41t41 27.5t50.5 10t50.5 -10t41 -27.5t27.5 -41t10 -50.5t-10 -50.5t-27.5 -41t-41 -27.5t-50.5 -10t-50.5 10t-41 27.5t-27.5 41t-10 50.5zM815 1728q0 27 10 50.5t27.5 41t41 27.5t50.5 10t50.5 -10t41 -27.5t27.5 -41t10 -50.5t-10 -50.5 t-27.5 -41t-41 -27.5t-50.5 -10t-50.5 10t-41 27.5t-27.5 41t-10 50.5z" />
<glyph unicode="&#xd7;" d="M170 381l326 324l-324 323l147 148l324 -324l324 326l153 -154l-325 -324l323 -323l-147 -148l-324 324l-323 -326z" />
<glyph unicode="&#xd8;" horiz-adv-x="1495" d="M123 717q0 88 14.5 177.5t45.5 172t80 154t118.5 124t160.5 83t206 30.5q103 0 186 -24.5t149 -67.5l64 92h215l-148 -215q42 -54 71.5 -116.5t49 -130.5t28.5 -138.5t9 -140.5q0 -89 -14.5 -178.5t-45.5 -172t-79.5 -154t-118 -124t-160.5 -83t-206 -30.5 q-104 0 -187 24.5t-149 68.5l-64 -93h-215l146 213q-42 54 -71.5 117t-48 131t-27.5 139t-9 142zM344 717q0 -85 17 -170.5t55 -159.5l547 801q-44 31 -97 48t-118 17q-75 0 -134 -23.5t-104 -63.5t-76.5 -93.5t-51.5 -113t-29 -122t-9 -120.5zM532 246q44 -31 96.5 -48.5 t119.5 -17.5q75 0 134 23.5t103.5 63.5t76 93.5t51.5 113t29 122t9 121.5q0 83 -17 169t-55 158z" />
<glyph unicode="&#xd9;" horiz-adv-x="1427" d="M174 543v891h213v-891q0 -108 25 -178t68.5 -111t103.5 -57.5t129 -16.5t128.5 16.5t104 57.5t69.5 111t25 178v891h213v-891q0 -158 -41 -266.5t-113.5 -175.5t-171.5 -96.5t-214 -29.5q-111 0 -209.5 29t-171.5 95.5t-115.5 175t-42.5 268.5zM389 1888h291l291 -319 h-217z" />
<glyph unicode="&#xda;" horiz-adv-x="1427" d="M174 543v891h213v-891q0 -108 25 -178t68.5 -111t103.5 -57.5t129 -16.5t128.5 16.5t104 57.5t69.5 111t25 178v891h213v-891q0 -158 -41 -266.5t-113.5 -175.5t-171.5 -96.5t-214 -29.5q-111 0 -209.5 29t-171.5 95.5t-115.5 175t-42.5 268.5zM496 1569l290 319h291 l-364 -319h-217z" />
<glyph unicode="&#xdb;" horiz-adv-x="1427" d="M174 543v891h213v-891q0 -108 25 -178t68.5 -111t103.5 -57.5t129 -16.5t128.5 16.5t104 57.5t69.5 111t25 178v891h213v-891q0 -158 -41 -266.5t-113.5 -175.5t-171.5 -96.5t-214 -29.5q-111 0 -209.5 29t-171.5 95.5t-115.5 175t-42.5 268.5zM315 1569l291 319h215 l289 -319h-205l-192 161l-193 -161h-205z" />
<glyph unicode="&#xdc;" horiz-adv-x="1427" d="M174 543v891h213v-891q0 -108 25 -178t68.5 -111t103.5 -57.5t129 -16.5t128.5 16.5t104 57.5t69.5 111t25 178v891h213v-891q0 -158 -41 -266.5t-113.5 -175.5t-171.5 -96.5t-214 -29.5q-111 0 -209.5 29t-171.5 95.5t-115.5 175t-42.5 268.5zM399 1728q0 27 10 50.5 t27.5 41t41 27.5t50.5 10t50.5 -10t41 -27.5t27.5 -41t10 -50.5t-10 -50.5t-27.5 -41t-41 -27.5t-50.5 -10t-50.5 10t-41 27.5t-27.5 41t-10 50.5zM768 1728q0 27 10 50.5t27.5 41t41 27.5t50.5 10t50.5 -10t41 -27.5t27.5 -41t10 -50.5t-10 -50.5t-27.5 -41t-41 -27.5 t-50.5 -10t-50.5 10t-41 27.5t-27.5 41t-10 50.5z" />
<glyph unicode="&#xdd;" horiz-adv-x="1364" d="M72 1434h243l367 -656l367 656h243l-504 -871v-563h-213v561zM465 1569l290 319h291l-364 -319h-217z" />
<glyph unicode="&#xde;" horiz-adv-x="1315" d="M184 0v1434h213v-267h363q132 0 222.5 -38t146 -100t80 -140.5t24.5 -159.5q0 -75 -26 -153t-83 -141.5t-147 -103.5t-217 -40h-363v-291h-213zM397 496h375q67 0 112.5 21t74 54t41 74.5t12.5 83.5q0 37 -11 78.5t-38 76t-73.5 57t-117.5 22.5h-375v-467z" />
<glyph unicode="&#xdf;" horiz-adv-x="1143" d="M133 -410v1379q0 133 37.5 226.5t98.5 151.5t139 84.5t159 26.5q94 0 171 -27t132.5 -76t86 -118t30.5 -154q0 -48 -11.5 -93.5t-35 -84t-59.5 -68.5t-86 -49q64 -19 113.5 -53t83.5 -80t51.5 -102.5t17.5 -120.5q0 -108 -33 -193t-91.5 -143.5t-137.5 -89.5t-172 -31 q-57 0 -106 9t-89 24l109 176q42 -12 88 -12q37 0 76 15t71 46t52 79t20 114q0 48 -15.5 94t-49.5 81.5t-88 57t-130 21.5h-45v197h45q45 0 83.5 12t66.5 36.5t43.5 61t15.5 84.5q0 88 -53 139.5t-152 51.5q-48 0 -89 -15.5t-71 -49.5t-46.5 -89t-16.5 -133v-1286z" />
<glyph unicode="&#xe0;" horiz-adv-x="1090" d="M92 326q0 90 34 155.5t90 108t128.5 62.5t149.5 20q72 0 138.5 -15.5t119.5 -46.5v58q0 59 -13.5 100t-41 66.5t-69.5 37t-100 11.5q-98 0 -169.5 -26t-129.5 -69l-63 175q32 22 73 41.5t90 34.5t106 23.5t122 8.5q44 0 91 -5t91.5 -19.5t84 -41.5t69 -70.5t46.5 -106.5 t17 -150v-678h-204v90q-20 -21 -48 -41.5t-63.5 -37t-79.5 -26.5t-96 -10q-80 0 -148 22t-118 66.5t-78.5 110t-28.5 152.5zM233 1499h291l291 -319h-217zM297 326q0 -75 52.5 -118.5t154.5 -43.5q81 0 143.5 33t104.5 79v160q-44 23 -103 37t-121 14q-48 0 -90 -9 t-73.5 -28.5t-49.5 -50t-18 -73.5z" />
<glyph unicode="&#xe1;" horiz-adv-x="1090" d="M92 326q0 90 34 155.5t90 108t128.5 62.5t149.5 20q72 0 138.5 -15.5t119.5 -46.5v58q0 59 -13.5 100t-41 66.5t-69.5 37t-100 11.5q-98 0 -169.5 -26t-129.5 -69l-63 175q32 22 73 41.5t90 34.5t106 23.5t122 8.5q44 0 91 -5t91.5 -19.5t84 -41.5t69 -70.5t46.5 -106.5 t17 -150v-678h-204v90q-20 -21 -48 -41.5t-63.5 -37t-79.5 -26.5t-96 -10q-80 0 -148 22t-118 66.5t-78.5 110t-28.5 152.5zM297 326q0 -75 52.5 -118.5t154.5 -43.5q81 0 143.5 33t104.5 79v160q-44 23 -103 37t-121 14q-48 0 -90 -9t-73.5 -28.5t-49.5 -50t-18 -73.5z M299 1180l290 319h291l-364 -319h-217z" />
<glyph unicode="&#xe2;" horiz-adv-x="1090" d="M92 326q0 90 34 155.5t90 108t128.5 62.5t149.5 20q72 0 138.5 -15.5t119.5 -46.5v58q0 59 -13.5 100t-41 66.5t-69.5 37t-100 11.5q-98 0 -169.5 -26t-129.5 -69l-63 175q32 22 73 41.5t90 34.5t106 23.5t122 8.5q44 0 91 -5t91.5 -19.5t84 -41.5t69 -70.5t46.5 -106.5 t17 -150v-678h-204v90q-20 -21 -48 -41.5t-63.5 -37t-79.5 -26.5t-96 -10q-80 0 -148 22t-118 66.5t-78.5 110t-28.5 152.5zM159 1180l291 319h215l289 -319h-205l-192 161l-193 -161h-205zM297 326q0 -75 52.5 -118.5t154.5 -43.5q81 0 143.5 33t104.5 79v160 q-44 23 -103 37t-121 14q-48 0 -90 -9t-73.5 -28.5t-49.5 -50t-18 -73.5z" />
<glyph unicode="&#xe3;" horiz-adv-x="1090" d="M92 326q0 90 34 155.5t90 108t128.5 62.5t149.5 20q72 0 138.5 -15.5t119.5 -46.5v58q0 59 -13.5 100t-41 66.5t-69.5 37t-100 11.5q-98 0 -169.5 -26t-129.5 -69l-63 175q32 22 73 41.5t90 34.5t106 23.5t122 8.5q44 0 91 -5t91.5 -19.5t84 -41.5t69 -70.5t46.5 -106.5 t17 -150v-678h-204v90q-20 -21 -48 -41.5t-63.5 -37t-79.5 -26.5t-96 -10q-80 0 -148 22t-118 66.5t-78.5 110t-28.5 152.5zM180 1210q0 61 11.5 110.5t37.5 84.5t66.5 53.5t99.5 18.5q54 0 99.5 -15.5t85.5 -34t77 -34t76 -15.5q38 0 65.5 22t30.5 68h104 q0 -61 -11.5 -110.5t-37.5 -84t-67 -53t-99 -18.5q-54 0 -99.5 15.5t-85.5 33.5t-77 33.5t-76 15.5q-38 0 -65.5 -21.5t-30.5 -68.5h-104zM297 326q0 -75 52.5 -118.5t154.5 -43.5q81 0 143.5 33t104.5 79v160q-44 23 -103 37t-121 14q-48 0 -90 -9t-73.5 -28.5t-49.5 -50 t-18 -73.5z" />
<glyph unicode="&#xe4;" horiz-adv-x="1090" d="M92 326q0 90 34 155.5t90 108t128.5 62.5t149.5 20q72 0 138.5 -15.5t119.5 -46.5v58q0 59 -13.5 100t-41 66.5t-69.5 37t-100 11.5q-98 0 -169.5 -26t-129.5 -69l-63 175q32 22 73 41.5t90 34.5t106 23.5t122 8.5q44 0 91 -5t91.5 -19.5t84 -41.5t69 -70.5t46.5 -106.5 t17 -150v-678h-204v90q-20 -21 -48 -41.5t-63.5 -37t-79.5 -26.5t-96 -10q-80 0 -148 22t-118 66.5t-78.5 110t-28.5 152.5zM243 1339q0 27 10 50.5t27.5 41t41 27.5t50.5 10t50.5 -10t41 -27.5t27.5 -41t10 -50.5t-10 -50.5t-27.5 -41t-41 -27.5t-50.5 -10t-50.5 10 t-41 27.5t-27.5 41t-10 50.5zM297 326q0 -75 52.5 -118.5t154.5 -43.5q81 0 143.5 33t104.5 79v160q-44 23 -103 37t-121 14q-48 0 -90 -9t-73.5 -28.5t-49.5 -50t-18 -73.5zM612 1339q0 27 10 50.5t27.5 41t41 27.5t50.5 10t50.5 -10t41 -27.5t27.5 -41t10 -50.5t-10 -50.5 t-27.5 -41t-41 -27.5t-50.5 -10t-50.5 10t-41 27.5t-27.5 41t-10 50.5z" />
<glyph unicode="&#xe5;" horiz-adv-x="1090" d="M92 326q0 90 34 155.5t90 108t128.5 62.5t149.5 20q72 0 138.5 -15.5t119.5 -46.5v58q0 59 -13.5 100t-41 66.5t-69.5 37t-100 11.5q-98 0 -169.5 -26t-129.5 -69l-63 175q32 22 73 41.5t90 34.5t106 23.5t122 8.5q44 0 91 -5t91.5 -19.5t84 -41.5t69 -70.5t46.5 -106.5 t17 -150v-678h-204v90q-20 -21 -48 -41.5t-63.5 -37t-79.5 -26.5t-96 -10q-80 0 -148 22t-118 66.5t-78.5 110t-28.5 152.5zM297 326q0 -75 52.5 -118.5t154.5 -43.5q81 0 143.5 33t104.5 79v160q-44 23 -103 37t-121 14q-48 0 -90 -9t-73.5 -28.5t-49.5 -50t-18 -73.5z M305 1411q0 52 20 97t54.5 78.5t80 53t97.5 19.5q51 0 97 -19.5t80.5 -53t54.5 -78.5t20 -97q0 -51 -20 -96.5t-54.5 -79.5t-80.5 -53.5t-97 -19.5q-52 0 -97.5 19.5t-80 53.5t-54.5 79.5t-20 96.5zM464 1411q0 -42 27 -69t66 -27q38 0 65 27.5t27 68.5q0 42 -27 69.5 t-65 27.5q-39 0 -66 -27.5t-27 -69.5z" />
<glyph unicode="&#xe6;" horiz-adv-x="1757" d="M92 326q0 90 34 155.5t90 108t128.5 62.5t149.5 20q72 0 138.5 -15.5t119.5 -46.5v58q0 59 -13.5 100t-41 66.5t-69.5 37t-100 11.5q-98 0 -169.5 -26t-129.5 -69l-63 175q32 22 73 41.5t90 34.5t106 23.5t122 8.5q41 0 85.5 -5t87 -19.5t80.5 -41t67 -69.5 q63 66 147.5 100.5t189.5 34.5q93 0 175 -29.5t143.5 -90t97 -152.5t35.5 -217q0 -34 -1.5 -72t-6.5 -66h-703q1 -65 23.5 -116.5t58.5 -88t83 -56t98 -19.5q65 0 120.5 27t96.5 79l139 -143q-57 -68 -146.5 -110t-212.5 -42q-118 0 -210.5 43t-155.5 123q-48 -49 -99 -81 t-101 -51t-97 -26.5t-86 -7.5q-80 0 -148 22t-118 66.5t-78.5 110t-28.5 152.5zM297 326q0 -75 52.5 -118.5t154.5 -43.5q80 0 143 33t105 79v160q-44 23 -104 37t-120 14q-48 0 -90 -9t-73.5 -28.5t-49.5 -50t-18 -73.5zM954 625h496q-2 70 -23 119t-54 80t-75 45t-84 14 q-50 0 -95.5 -14t-80.5 -45t-57.5 -80t-26.5 -119z" />
<glyph unicode="&#xe7;" horiz-adv-x="1061" d="M102 522q0 129 32 231t91.5 172.5t144 108t189.5 37.5q146 0 247.5 -65t147.5 -205l-202 -70q-23 60 -70 97.5t-115 37.5q-60 0 -106 -24t-77.5 -68.5t-48 -108t-16.5 -143.5t16.5 -143.5t47 -107.5t75 -67.5t101.5 -23.5q72 0 123.5 40t73.5 114l202 -64 q-38 -134 -126 -207t-222 -86l-49 -79q60 0 102.5 -14.5t70 -38.5t40 -56t12.5 -68q0 -46 -18 -84.5t-51.5 -66.5t-81.5 -43.5t-107 -15.5q-74 0 -123.5 21.5t-80.5 55.5l104 76q12 -15 31.5 -23t48.5 -8q46 0 74 25t28 66q0 38 -31.5 63t-78.5 25q-49 0 -82 -21l-41 51 l110 140q-90 11 -161 53t-121 111t-76.5 164t-26.5 212z" />
<glyph unicode="&#xe8;" horiz-adv-x="1120" d="M102 524q0 129 34 230.5t96.5 172t150 107.5t195.5 37q93 0 174.5 -29.5t143 -90t97 -152.5t35.5 -217q0 -34 -1.5 -72t-6.5 -66h-705q1 -65 23.5 -116.5t59.5 -88t84 -56t98 -19.5q65 0 120.5 27t96.5 79l139 -143q-57 -68 -146 -110t-212 -42q-109 0 -197 37.5 t-150 108t-95.5 172.5t-33.5 231zM256 1499h291l291 -319h-217zM315 616h500q-2 73 -23 124t-55 82.5t-75.5 46t-83.5 14.5q-50 0 -96 -14.5t-81.5 -46t-58.5 -82.5t-27 -124z" />
<glyph unicode="&#xe9;" horiz-adv-x="1120" d="M102 524q0 129 34 230.5t96.5 172t150 107.5t195.5 37q93 0 174.5 -29.5t143 -90t97 -152.5t35.5 -217q0 -34 -1.5 -72t-6.5 -66h-705q1 -65 23.5 -116.5t59.5 -88t84 -56t98 -19.5q65 0 120.5 27t96.5 79l139 -143q-57 -68 -146 -110t-212 -42q-109 0 -197 37.5 t-150 108t-95.5 172.5t-33.5 231zM315 616h500q-2 73 -23 124t-55 82.5t-75.5 46t-83.5 14.5q-50 0 -96 -14.5t-81.5 -46t-58.5 -82.5t-27 -124zM322 1180l290 319h291l-364 -319h-217z" />
<glyph unicode="&#xea;" horiz-adv-x="1120" d="M102 524q0 129 34 230.5t96.5 172t150 107.5t195.5 37q93 0 174.5 -29.5t143 -90t97 -152.5t35.5 -217q0 -34 -1.5 -72t-6.5 -66h-705q1 -65 23.5 -116.5t59.5 -88t84 -56t98 -19.5q65 0 120.5 27t96.5 79l139 -143q-57 -68 -146 -110t-212 -42q-109 0 -197 37.5 t-150 108t-95.5 172.5t-33.5 231zM182 1180l291 319h215l289 -319h-205l-192 161l-193 -161h-205zM315 616h500q-2 73 -23 124t-55 82.5t-75.5 46t-83.5 14.5q-50 0 -96 -14.5t-81.5 -46t-58.5 -82.5t-27 -124z" />
<glyph unicode="&#xeb;" horiz-adv-x="1120" d="M102 524q0 129 34 230.5t96.5 172t150 107.5t195.5 37q93 0 174.5 -29.5t143 -90t97 -152.5t35.5 -217q0 -34 -1.5 -72t-6.5 -66h-705q1 -65 23.5 -116.5t59.5 -88t84 -56t98 -19.5q65 0 120.5 27t96.5 79l139 -143q-57 -68 -146 -110t-212 -42q-109 0 -197 37.5 t-150 108t-95.5 172.5t-33.5 231zM266 1339q0 27 10 50.5t27.5 41t41 27.5t50.5 10t50.5 -10t41 -27.5t27.5 -41t10 -50.5t-10 -50.5t-27.5 -41t-41 -27.5t-50.5 -10t-50.5 10t-41 27.5t-27.5 41t-10 50.5zM315 616h500q-2 73 -23 124t-55 82.5t-75.5 46t-83.5 14.5 q-50 0 -96 -14.5t-81.5 -46t-58.5 -82.5t-27 -124zM635 1339q0 27 10 50.5t27.5 41t41 27.5t50.5 10t50.5 -10t41 -27.5t27.5 -41t10 -50.5t-10 -50.5t-27.5 -41t-41 -27.5t-50.5 -10t-50.5 10t-41 27.5t-27.5 41t-10 50.5z" />
<glyph unicode="&#xec;" horiz-adv-x="524" d="M-57 1499h291l291 -319h-217zM156 0v1047h213v-1047h-213z" />
<glyph unicode="&#xed;" horiz-adv-x="524" d="M9 1180l290 319h291l-364 -319h-217zM156 0v1047h213v-1047h-213z" />
<glyph unicode="&#xee;" horiz-adv-x="524" d="M-131 1180l291 319h215l289 -319h-205l-192 161l-193 -161h-205zM156 0v1047h213v-1047h-213z" />
<glyph unicode="&#xef;" horiz-adv-x="524" d="M-47 1339q0 27 10 50.5t27.5 41t41 27.5t50.5 10t50.5 -10t41 -27.5t27.5 -41t10 -50.5t-10 -50.5t-27.5 -41t-41 -27.5t-50.5 -10t-50.5 10t-41 27.5t-27.5 41t-10 50.5zM156 0v1047h213v-1047h-213zM322 1339q0 27 10 50.5t27.5 41t41 27.5t50.5 10t50.5 -10t41 -27.5 t27.5 -41t10 -50.5t-10 -50.5t-27.5 -41t-41 -27.5t-50.5 -10t-50.5 10t-41 27.5t-27.5 41t-10 50.5z" />
<glyph unicode="&#xf0;" horiz-adv-x="1161" d="M102 453q0 106 36.5 194t99 152t145.5 99.5t176 35.5q47 0 90.5 -10.5t80 -29.5t65 -45.5t45.5 -57.5q-25 118 -77.5 209t-129.5 153l-127 -133l-113 106l103 107q-51 20 -106.5 31t-115.5 14v180q104 -3 192.5 -24t164.5 -58l119 123l112 -108l-96 -101 q75 -61 130 -140.5t91 -174t54 -201.5t18 -223q0 -120 -29 -225t-88 -183t-149 -123t-213 -45q-103 0 -190.5 36t-151.5 100t-100 151.5t-36 190.5zM315 453q0 -59 20.5 -110t56.5 -88t84 -58t104 -21t104.5 21t84.5 58t56.5 87t20.5 109q0 61 -20 113t-56 89.5t-85 58.5 t-107 21q-57 0 -105 -20t-83.5 -57t-55 -88.5t-19.5 -114.5z" />
<glyph unicode="&#xf1;" horiz-adv-x="1157" d="M154 0v1047h213v-101q51 65 117 95t153 30q82 0 151 -23.5t119.5 -76.5t78.5 -138t28 -208v-625h-213v625q0 66 -16 112.5t-44 76t-66 43t-83 13.5q-48 0 -89 -12.5t-71 -40.5t-47.5 -74.5t-17.5 -113.5v-629h-213zM213 1210q0 61 11.5 110.5t37.5 84.5t66.5 53.5 t99.5 18.5q54 0 99.5 -15.5t85.5 -34t77 -34t76 -15.5q38 0 65.5 22t30.5 68h104q0 -61 -11.5 -110.5t-37.5 -84t-67 -53t-99 -18.5q-54 0 -99.5 15.5t-85.5 33.5t-77 33.5t-76 15.5q-38 0 -65.5 -21.5t-30.5 -68.5h-104z" />
<glyph unicode="&#xf2;" horiz-adv-x="1161" d="M102 522q0 129 33.5 231t95.5 172.5t150.5 108t198.5 37.5q109 0 198 -37.5t151 -108t96 -172.5t34 -231t-34 -230.5t-96 -172t-151 -107.5t-198 -37q-110 0 -198.5 37t-150.5 107.5t-95.5 172t-33.5 230.5zM256 1499h291l291 -319h-217zM315 522q0 -81 18.5 -145 t53 -108.5t83.5 -68.5t110 -24t110.5 24t84 68.5t53 108.5t18.5 145t-18.5 145.5t-53 109.5t-84 69t-110.5 24t-110 -24t-83.5 -69t-53 -109.5t-18.5 -145.5z" />
<glyph unicode="&#xf3;" horiz-adv-x="1161" d="M102 522q0 129 33.5 231t95.5 172.5t150.5 108t198.5 37.5q109 0 198 -37.5t151 -108t96 -172.5t34 -231t-34 -230.5t-96 -172t-151 -107.5t-198 -37q-110 0 -198.5 37t-150.5 107.5t-95.5 172t-33.5 230.5zM315 522q0 -81 18.5 -145t53 -108.5t83.5 -68.5t110 -24 t110.5 24t84 68.5t53 108.5t18.5 145t-18.5 145.5t-53 109.5t-84 69t-110.5 24t-110 -24t-83.5 -69t-53 -109.5t-18.5 -145.5zM322 1180l290 319h291l-364 -319h-217z" />
<glyph unicode="&#xf4;" horiz-adv-x="1161" d="M102 522q0 129 33.5 231t95.5 172.5t150.5 108t198.5 37.5q109 0 198 -37.5t151 -108t96 -172.5t34 -231t-34 -230.5t-96 -172t-151 -107.5t-198 -37q-110 0 -198.5 37t-150.5 107.5t-95.5 172t-33.5 230.5zM182 1180l291 319h215l289 -319h-205l-192 161l-193 -161h-205 zM315 522q0 -81 18.5 -145t53 -108.5t83.5 -68.5t110 -24t110.5 24t84 68.5t53 108.5t18.5 145t-18.5 145.5t-53 109.5t-84 69t-110.5 24t-110 -24t-83.5 -69t-53 -109.5t-18.5 -145.5z" />
<glyph unicode="&#xf5;" horiz-adv-x="1161" d="M102 522q0 129 33.5 231t95.5 172.5t150.5 108t198.5 37.5q109 0 198 -37.5t151 -108t96 -172.5t34 -231t-34 -230.5t-96 -172t-151 -107.5t-198 -37q-110 0 -198.5 37t-150.5 107.5t-95.5 172t-33.5 230.5zM203 1210q0 61 11.5 110.5t37.5 84.5t66.5 53.5t99.5 18.5 q54 0 99.5 -15.5t85.5 -34t77 -34t76 -15.5q38 0 65.5 22t30.5 68h104q0 -61 -11.5 -110.5t-37.5 -84t-67 -53t-99 -18.5q-54 0 -99.5 15.5t-85.5 33.5t-77 33.5t-76 15.5q-38 0 -65.5 -21.5t-30.5 -68.5h-104zM315 522q0 -81 18.5 -145t53 -108.5t83.5 -68.5t110 -24 t110.5 24t84 68.5t53 108.5t18.5 145t-18.5 145.5t-53 109.5t-84 69t-110.5 24t-110 -24t-83.5 -69t-53 -109.5t-18.5 -145.5z" />
<glyph unicode="&#xf6;" horiz-adv-x="1161" d="M102 522q0 129 33.5 231t95.5 172.5t150.5 108t198.5 37.5q109 0 198 -37.5t151 -108t96 -172.5t34 -231t-34 -230.5t-96 -172t-151 -107.5t-198 -37q-110 0 -198.5 37t-150.5 107.5t-95.5 172t-33.5 230.5zM266 1339q0 27 10 50.5t27.5 41t41 27.5t50.5 10t50.5 -10 t41 -27.5t27.5 -41t10 -50.5t-10 -50.5t-27.5 -41t-41 -27.5t-50.5 -10t-50.5 10t-41 27.5t-27.5 41t-10 50.5zM315 522q0 -81 18.5 -145t53 -108.5t83.5 -68.5t110 -24t110.5 24t84 68.5t53 108.5t18.5 145t-18.5 145.5t-53 109.5t-84 69t-110.5 24t-110 -24t-83.5 -69 t-53 -109.5t-18.5 -145.5zM635 1339q0 27 10 50.5t27.5 41t41 27.5t50.5 10t50.5 -10t41 -27.5t27.5 -41t10 -50.5t-10 -50.5t-27.5 -41t-41 -27.5t-50.5 -10t-50.5 10t-41 27.5t-27.5 41t-10 50.5z" />
<glyph unicode="&#xf7;" d="M164 600v205h962v-205h-962zM510 309q0 27 10 51t28 41.5t42 28t53 10.5q28 0 53 -10.5t43 -28t28.5 -41.5t10.5 -51t-10.5 -50.5t-28.5 -41t-43 -27.5t-53 -10q-29 0 -53 10t-42 27.5t-28 41t-10 50.5zM510 1094q0 27 10 50.5t28 41.5t42 28.5t53 10.5q28 0 53 -10.5 t43 -28.5t28.5 -41.5t10.5 -50.5t-10.5 -50.5t-28.5 -41t-43 -27.5t-53 -10q-29 0 -53 10t-42 27.5t-28 41t-10 50.5z" />
<glyph unicode="&#xf8;" horiz-adv-x="1161" d="M102 -25l113 164q-54 71 -83.5 166.5t-29.5 216.5q0 129 33.5 231t95.5 172.5t150.5 108t198.5 37.5q139 0 243 -59l41 59h195l-115 -164q56 -71 85.5 -167.5t29.5 -217.5q0 -129 -34 -230.5t-96 -172t-151 -107.5t-198 -37q-72 0 -132.5 15.5t-111.5 44.5l-41 -60h-193z M315 522q0 -111 33 -190l354 508q-26 15 -57 22.5t-65 7.5q-61 0 -110 -24t-83.5 -69t-53 -109.5t-18.5 -145.5zM457 207q52 -31 123 -31q61 0 110.5 24t84 68.5t53 108.5t18.5 145q0 56 -9 104.5t-28 88.5z" />
<glyph unicode="&#xf9;" horiz-adv-x="1157" d="M143 422v625h213v-625q0 -66 16 -112.5t44 -76.5t66 -43.5t83 -13.5q48 0 89 12.5t71.5 41t48 74.5t17.5 114v629h213v-1047h-213v100q-51 -65 -117.5 -95t-153.5 -30q-82 0 -151 23.5t-119.5 77t-78.5 138.5t-28 208zM246 1499h291l291 -319h-217z" />
<glyph unicode="&#xfa;" horiz-adv-x="1157" d="M143 422v625h213v-625q0 -66 16 -112.5t44 -76.5t66 -43.5t83 -13.5q48 0 89 12.5t71.5 41t48 74.5t17.5 114v629h213v-1047h-213v100q-51 -65 -117.5 -95t-153.5 -30q-82 0 -151 23.5t-119.5 77t-78.5 138.5t-28 208zM312 1180l290 319h291l-364 -319h-217z" />
<glyph unicode="&#xfb;" horiz-adv-x="1157" d="M143 422v625h213v-625q0 -66 16 -112.5t44 -76.5t66 -43.5t83 -13.5q48 0 89 12.5t71.5 41t48 74.5t17.5 114v629h213v-1047h-213v100q-51 -65 -117.5 -95t-153.5 -30q-82 0 -151 23.5t-119.5 77t-78.5 138.5t-28 208zM172 1180l291 319h215l289 -319h-205l-192 161 l-193 -161h-205z" />
<glyph unicode="&#xfc;" horiz-adv-x="1157" d="M143 422v625h213v-625q0 -66 16 -112.5t44 -76.5t66 -43.5t83 -13.5q48 0 89 12.5t71.5 41t48 74.5t17.5 114v629h213v-1047h-213v100q-51 -65 -117.5 -95t-153.5 -30q-82 0 -151 23.5t-119.5 77t-78.5 138.5t-28 208zM256 1339q0 27 10 50.5t27.5 41t41 27.5t50.5 10 t50.5 -10t41 -27.5t27.5 -41t10 -50.5t-10 -50.5t-27.5 -41t-41 -27.5t-50.5 -10t-50.5 10t-41 27.5t-27.5 41t-10 50.5zM625 1339q0 27 10 50.5t27.5 41t41 27.5t50.5 10t50.5 -10t41 -27.5t27.5 -41t10 -50.5t-10 -50.5t-27.5 -41t-41 -27.5t-50.5 -10t-50.5 10t-41 27.5 t-27.5 41t-10 50.5z" />
<glyph unicode="&#xfd;" horiz-adv-x="1102" d="M51 1047h211l258 -685q11 -29 17 -48t12 -44q6 25 12 44t17 48l260 685h213l-553 -1444h-217l161 415zM291 1180l290 319h291l-364 -319h-217z" />
<glyph unicode="&#xfe;" horiz-adv-x="1151" d="M154 -412v1770l213 100v-495q41 46 101 77t150 31q99 0 179 -37.5t136 -108t86 -172.5t30 -231t-31.5 -230.5t-88 -172t-136 -107.5t-175.5 -37q-46 0 -83.5 9t-68.5 25t-55.5 36.5t-43.5 44.5v-403zM367 297q18 -24 40.5 -46t50 -38.5t60 -26.5t70.5 -10q121 0 184.5 89 t63.5 257q0 76 -16.5 140t-48.5 110t-78 72t-105 26q-75 0 -130.5 -30.5t-90.5 -87.5v-455z" />
<glyph unicode="&#xff;" horiz-adv-x="1102" d="M51 1047h211l258 -685q11 -29 17 -48t12 -44q6 25 12 44t17 48l260 685h213l-553 -1444h-217l161 415zM235 1339q0 27 10 50.5t27.5 41t41 27.5t50.5 10t50.5 -10t41 -27.5t27.5 -41t10 -50.5t-10 -50.5t-27.5 -41t-41 -27.5t-50.5 -10t-50.5 10t-41 27.5t-27.5 41 t-10 50.5zM604 1339q0 27 10 50.5t27.5 41t41 27.5t50.5 10t50.5 -10t41 -27.5t27.5 -41t10 -50.5t-10 -50.5t-27.5 -41t-41 -27.5t-50.5 -10t-50.5 10t-41 27.5t-27.5 41t-10 50.5z" />
<glyph unicode="&#x152;" horiz-adv-x="1831" d="M123 717q0 82 13 169t43 169.5t78 155.5t117.5 128t162 87t211.5 32q102 0 188 -24h778v-201h-573v-393h334v-201h-334v-438h618v-201h-823q-42 -12 -89 -18.5t-99 -6.5q-115 0 -206 30.5t-160.5 83t-118.5 124t-80 154t-45.5 172t-14.5 178.5zM344 717q0 -95 21 -191 t69 -173t125 -125t189 -48q54 0 98.5 12t81.5 33v983q-77 47 -180 47q-75 0 -134.5 -23.5t-104.5 -64t-76.5 -94t-51 -113.5t-28.5 -122.5t-9 -120.5z" />
<glyph unicode="&#x153;" horiz-adv-x="1860" d="M102 522q0 129 33.5 231t95.5 172.5t150.5 108t198.5 37.5q120 0 213.5 -44t156.5 -128q62 84 155 128t212 44q93 0 175 -29.5t143 -90t96.5 -152.5t35.5 -217q0 -34 -1.5 -72t-6.5 -66h-704q1 -65 23.5 -116.5t59 -88t83.5 -56t98 -19.5q65 0 121 27t96 79l139 -143 q-57 -68 -146 -110t-212 -42q-119 0 -211.5 43.5t-155.5 126.5q-63 -83 -156.5 -126.5t-213.5 -43.5q-110 0 -198.5 37t-150.5 107.5t-95.5 172t-33.5 230.5zM315 522q0 -81 18.5 -145t53 -108.5t83.5 -68.5t110 -24t110.5 24t84 68.5t53 108.5t18.5 145t-18.5 145.5 t-53 109.5t-84 69t-110.5 24t-110 -24t-83.5 -69t-53 -109.5t-18.5 -145.5zM1055 616h499q-2 73 -23 124t-54.5 82.5t-75.5 46t-84 14.5q-50 0 -95.5 -14.5t-81.5 -46t-58.5 -82.5t-26.5 -124z" />
<glyph unicode="&#x178;" horiz-adv-x="1364" d="M72 1434h243l367 -656l367 656h243l-504 -871v-563h-213v561zM368 1728q0 27 10 50.5t27.5 41t41 27.5t50.5 10t50.5 -10t41 -27.5t27.5 -41t10 -50.5t-10 -50.5t-27.5 -41t-41 -27.5t-50.5 -10t-50.5 10t-41 27.5t-27.5 41t-10 50.5zM737 1728q0 27 10 50.5t27.5 41 t41 27.5t50.5 10t50.5 -10t41 -27.5t27.5 -41t10 -50.5t-10 -50.5t-27.5 -41t-41 -27.5t-50.5 -10t-50.5 10t-41 27.5t-27.5 41t-10 50.5z" />
<glyph unicode="&#x2c6;" horiz-adv-x="819" d="M12 1180l291 319h215l289 -319h-205l-192 161l-193 -161h-205z" />
<glyph unicode="&#x2dc;" horiz-adv-x="819" d="M33 1210q0 61 11.5 110.5t37.5 84.5t66.5 53.5t99.5 18.5q54 0 99.5 -15.5t85.5 -34t77 -34t76 -15.5q38 0 65.5 22t30.5 68h104q0 -61 -11.5 -110.5t-37.5 -84t-67 -53t-99 -18.5q-54 0 -99.5 15.5t-85.5 33.5t-77 33.5t-76 15.5q-38 0 -65.5 -21.5t-30.5 -68.5h-104z " />
<glyph unicode="&#x2000;" horiz-adv-x="944" />
<glyph unicode="&#x2001;" horiz-adv-x="1888" />
<glyph unicode="&#x2002;" horiz-adv-x="944" />
<glyph unicode="&#x2003;" horiz-adv-x="1888" />
<glyph unicode="&#x2004;" horiz-adv-x="629" />
<glyph unicode="&#x2005;" horiz-adv-x="472" />
<glyph unicode="&#x2006;" horiz-adv-x="314" />
<glyph unicode="&#x2007;" horiz-adv-x="314" />
<glyph unicode="&#x2008;" horiz-adv-x="236" />
<glyph unicode="&#x2009;" horiz-adv-x="377" />
<glyph unicode="&#x200a;" horiz-adv-x="104" />
<glyph unicode="&#x2010;" horiz-adv-x="809" d="M154 506v205h501v-205h-501z" />
<glyph unicode="&#x2011;" horiz-adv-x="809" d="M154 506v205h501v-205h-501z" />
<glyph unicode="&#x2012;" horiz-adv-x="809" d="M154 506v205h501v-205h-501z" />
<glyph unicode="&#x2013;" horiz-adv-x="1014" d="M102 496v184h809v-184h-809z" />
<glyph unicode="&#x2014;" horiz-adv-x="1178" d="M-10 496v184h1198v-184h-1198z" />
<glyph unicode="&#x2018;" horiz-adv-x="457" d="M72 1081q0 59 17.5 114.5t47.5 104.5t70.5 89t85.5 69l80 -51q-14 -12 -33.5 -34.5t-38.5 -51t-34 -61t-19 -66.5q27 -2 51.5 -13t43.5 -30t30.5 -44t11.5 -56q0 -36 -12.5 -64.5t-33.5 -49t-48.5 -31.5t-57.5 -11q-32 0 -61.5 11.5t-51.5 34.5t-35 58t-13 82z" />
<glyph unicode="&#x2019;" horiz-adv-x="457" d="M72 1303q0 35 12.5 63.5t33 49t48 31.5t57.5 11q32 0 61.5 -11.5t52 -34.5t35.5 -58t13 -82q0 -59 -17.5 -115t-47.5 -104.5t-70.5 -89t-85.5 -68.5l-80 51q14 12 33.5 34.5t38.5 51t33.5 61t19.5 66.5q-27 2 -52 13.5t-43.5 30t-30 44t-11.5 56.5z" />
<glyph unicode="&#x201a;" horiz-adv-x="457" d="M72 119q0 35 12.5 63.5t33 49t48 31.5t57.5 11q32 0 61.5 -11.5t52 -34.5t35.5 -58t13 -82q0 -59 -17.5 -115t-47.5 -104.5t-70.5 -89t-85.5 -68.5l-80 51q14 12 33.5 34.5t38.5 51t33.5 61t19.5 66.5q-27 3 -52 14t-43.5 30t-30 44t-11.5 56z" />
<glyph unicode="&#x201c;" horiz-adv-x="913" d="M72 1081q0 59 17.5 114.5t47.5 104.5t70.5 89t85.5 69l80 -51q-14 -12 -33.5 -34.5t-38.5 -51t-34 -61t-19 -66.5q27 -2 51.5 -13t43.5 -30t30.5 -44t11.5 -56q0 -36 -12.5 -64.5t-33.5 -49t-48.5 -31.5t-57.5 -11q-32 0 -61.5 11.5t-51.5 34.5t-35 58t-13 82zM528 1081 q0 59 17.5 114.5t48 104.5t71 89t85.5 69l79 -51q-14 -12 -33 -34.5t-38 -51t-34 -61t-19 -66.5q27 -2 51.5 -13t43.5 -30t30.5 -44t11.5 -56q0 -36 -12.5 -64.5t-33.5 -49t-48.5 -31.5t-57.5 -11q-32 0 -61.5 11.5t-52 34.5t-35.5 58t-13 82z" />
<glyph unicode="&#x201d;" horiz-adv-x="913" d="M72 1303q0 35 12.5 63.5t33 49t48 31.5t57.5 11q32 0 61.5 -11.5t52 -34.5t35.5 -58t13 -82q0 -59 -17.5 -115t-47.5 -104.5t-70.5 -89t-85.5 -68.5l-80 51q14 12 33.5 34.5t38.5 51t33.5 61t19.5 66.5q-27 2 -52 13.5t-43.5 30t-30 44t-11.5 56.5zM528 1303 q0 35 12.5 63.5t33.5 49t48.5 31.5t57.5 11q32 0 61.5 -11.5t52 -34.5t35.5 -58t13 -82q0 -59 -17.5 -115t-48 -104.5t-70.5 -89t-85 -68.5l-80 51q14 12 33.5 34.5t38 51t33.5 61t20 66.5q-27 2 -52 13.5t-44 30t-30.5 44t-11.5 56.5z" />
<glyph unicode="&#x201e;" horiz-adv-x="913" d="M72 119q0 35 12.5 63.5t33 49t48 31.5t57.5 11q32 0 61.5 -11.5t52 -34.5t35.5 -58t13 -82q0 -59 -17.5 -115t-47.5 -104.5t-70.5 -89t-85.5 -68.5l-80 51q14 12 33.5 34.5t38.5 51t33.5 61t19.5 66.5q-27 3 -52 14t-43.5 30t-30 44t-11.5 56zM528 119q0 35 12.5 63.5 t33.5 49t48.5 31.5t57.5 11q32 0 61.5 -11.5t52 -34.5t35.5 -58t13 -82q0 -59 -17.5 -115t-48 -104.5t-70.5 -89t-85 -68.5l-80 51q14 12 33.5 34.5t38 51t33.5 61t20 66.5q-27 3 -52 14t-44 30t-30.5 44t-11.5 56z" />
<glyph unicode="&#x2022;" horiz-adv-x="831" d="M123 717q0 58 22 109.5t61 90.5t92.5 61.5t115.5 22.5t116 -22.5t93.5 -61.5t62.5 -90.5t23 -109.5q0 -59 -23 -110t-62.5 -89t-93.5 -60t-116 -22t-115.5 22t-92.5 60t-61 89t-22 110z" />
<glyph unicode="&#x2026;" horiz-adv-x="1911" d="M184 104q0 27 10 51t28 42t42.5 28.5t52.5 10.5t53 -10.5t43.5 -28.5t29 -42t10.5 -51t-10.5 -50.5t-29 -41t-43.5 -27.5t-53 -10t-52.5 10t-42.5 27.5t-28 41t-10 50.5zM821 104q0 27 10 51t28 42t42.5 28.5t52.5 10.5t53 -10.5t43.5 -28.5t29 -42t10.5 -51t-10.5 -50.5 t-29 -41t-43.5 -27.5t-53 -10t-52.5 10t-42.5 27.5t-28 41t-10 50.5zM1458 104q0 27 10 51t28 42t42.5 28.5t52.5 10.5t53 -10.5t43 -28.5t28.5 -42t10.5 -51t-10.5 -50.5t-28.5 -41t-43 -27.5t-53 -10t-52.5 10t-42.5 27.5t-28 41t-10 50.5z" />
<glyph unicode="&#x202f;" horiz-adv-x="377" />
<glyph unicode="&#x2039;" horiz-adv-x="635" d="M61 524l312 523h231l-311 -523l311 -524h-231z" />
<glyph unicode="&#x203a;" horiz-adv-x="635" d="M31 0l311 524l-311 523h231l311 -523l-311 -524h-231z" />
<glyph unicode="&#x205f;" horiz-adv-x="472" />
<glyph unicode="&#x20ac;" d="M80 444l76 181h90q-2 23 -2 46v46v30.5t2 32.5h-164l76 181h110q20 97 60 186.5t104 158.5t155 110.5t214 41.5q96 0 187.5 -27t187.5 -96l-84 -202q-26 22 -55.5 43.5t-65.5 38.5t-78 27.5t-92 10.5q-68 0 -119 -23.5t-88.5 -63t-62.5 -92.5t-39 -113h528l-76 -181h-477 q-2 -17 -2 -33v-30v-46t2 -46h418l-76 -181h-313q15 -57 38.5 -105t58.5 -83.5t81 -55.5t106 -20q79 0 141.5 40t108.5 108l178 -111q-32 -54 -75 -99t-96.5 -76.5t-117.5 -49t-139 -17.5q-120 0 -208 37.5t-149 101t-98.5 149t-56.5 181.5h-188z" />
<glyph unicode="&#x2122;" horiz-adv-x="1640" d="M41 1286v148h610v-148h-227v-717h-154v717h-229zM725 569v865h158l215 -502l14 -41l14 41l215 502h156v-865h-151v516l-19 -51l-213 -497l-215 497l-20 58v-523h-154z" />
<glyph unicode="&#x25fc;" horiz-adv-x="1045" d="M0 0v1045h1045v-1045h-1045z" />
</font>
</defs>
</svg>
